Час хризантем [з аудіодискрипцією] (2017) 1080p

Нові коментарі

Нова тема   Відповісти
Автор Повідомлення
Anonymous 







2020-04-29 23:25  
Час хризантем [з аудіодискрипцією] (2017) 1080p

Час хризантем [з аудіодискрипцією] (2017) 1080p


Жанр: драма
Країна: Україна



Кінокомпанія: ЇЖАК ФІЛЬМ
Режисер: Дмитро Мойсеєв
Актори: Алла Бінєєва, Пьотр Армяновський, Ігор Рубашкін, Андрій Кронглевський, Костянтин Данилюк

Сюжет:
Після втрати близької людини, Ольга залишається сама зі своїм горем. Не маючи з ким розділити втрату, вона купує собі автомобіль і рушає в подорож Києвом та його околицями. На своєму шляху вона зустрічає людей, що втратили себе: хтось через постійну брехню, хтось через невдалий вибір. Декому з них Ольга допомагає, а декого лишає у його болоті. У час хризантем вона має переосмислити своє життя і втрату, щоб жити далі.

УВАГА!

Розміщений на веб-сторінці відеоконтент з аудіодискрипцією заборонено використовувати з комерційною метою!
Усі невиключні майнові авторські права належать ЛОО ВГО «Українська спілка інвалідів – УСІ».
Територія використання – Україна.


Тривалість: 01:09:52
Якість:
Відео:
кодек:
розмір кадру: 1920 х 1080
бітрейт: 1027 кб/с

Аудіо:
мова: українська [з аудіодискрипцією. Озвучує Ярослав Нудик]
переклад: оригінал
кодек: 2.0
бітрейт: 128 кб/с
Info
Код:
General
Complete name                            : Час хризантем [з аудіодискрипцією] (2017) 1080p [Hurtom].mp4
Format                                   : MPEG-4
Format profile                           : Base Media
Codec ID                                 : isom (isom/iso2/avc1/mp41)
File size                                : 579 MiB
Duration                                 : 1 h 9 min
Overall bit rate mode                    : Variable
Overall bit rate                         : 1 158 kb/s
Encoded date                             : UTC 2020-01-30 11:43:17
Tagged date                              : UTC 2020-01-30 11:43:17

Video
ID                                       : 1
Format                                   : AVC
Format/Info                              : Advanced Video Codec
Format profile                           : [email protected]
Format settings                          : CABAC / 3 Ref Frames
Format settings, CABAC                   : Yes
Format settings, ReFrames                : 3 frames
Codec ID                                 : avc1
Codec ID/Info                            : Advanced Video Coding
Duration                                 : 1 h 9 min
Bit rate                                 : 1 027 kb/s
Width                                    : 1 920 pixels
Height                                   : 1 080 pixels
Display aspect ratio                     : 16:9
Frame rate mode                          : Constant
Frame rate                               : 23.810 FPS
Color space                              : YUV
Chroma subsampling                       : 4:2:0
Bit depth                                : 8 bits
Scan type                                : Progressive
Bits/(Pixel*Frame)                       : 0.021
Stream size                              : 513 MiB (89%)
Title                                    : ISO Media file produced by Google Inc.
Encoded date                             : UTC 2020-01-30 11:43:17
Tagged date                              : UTC 2020-01-30 11:43:17
Color range                              : Limited
Color primaries                          : BT.709
Transfer characteristics                 : BT.709
Matrix coefficients                      : BT.709
Codec configuration box                  : avcC

Audio
ID                                       : 2
Format                                   : LC
Format/Info                              : Advanced Audio Codec Low Complexity
Codec ID                                 : mp4a-40-2
Duration                                 : 1 h 9 min
Bit rate mode                            : Variable
Bit rate                                 : 128 kb/s
Channel(s)                               : 2 channels
Channel layout                           : L R
Sampling rate                            : 44.1 kHz
Frame rate                               : 43.066 FPS (1024 SPF)
Compression mode                         : Lossy
Stream size                              : 64.0 MiB (11%)
Title                                    : ISO Media file produced by Google Inc.
Default                                  : Yes
Alternate group                          : 1
Encoded date                             : UTC 2020-01-30 11:43:14
Tagged date                              : UTC 2020-01-30 11:43:14

Скріншоти





Джерело: і Українська спілка інвалідів – УСІ


Золотий реліз (завантажене не впливає на рейтинг)
 Трекер:    Зареєстрований   

Завантажити / скачати український фільм



відео для новачків



 Зареєстрований:   2020-04-29 23:25
 Розмір:   579 MB 
 Оцінка фільму:   9.1/10 (Голосів: 20)
   
Anonymous 







2020-04-29 23:31  
Напишу ще тут, щоб потім не було питань - фільм з АУДІОДИСКРИПЦІЄЮ (або тифлокоментарем), але це не створює дискомфорту (хіба в окремих випадках зауважив декілька неточностей).
Озвучення було створено в рамках проекту «Нове українське кіно для незрячих».

Leprechaun 
Свій


З нами з: 10.10.09
Востаннє: 01.03.21
Повідомлень: 58

2020-05-01 08:57  
Дивний маршрут: Підвисоцького-Кіквідзе(Бойчука)-Саперно-Слобідська-Урлівська-Милославська-
illinoiser 
Новенький


З нами з: 05.08.17
Востаннє: 01.03.21
Повідомлень: 2

2020-06-06 13:36  
Чи буде версія без аудіодискрипції?
Brewiter 
Новенький


З нами з: 27.07.12
Востаннє: 28.02.21
Повідомлень: 7

2020-07-26 18:34  
Перший раз дивився фільм з аудіодискрипцією і дуже приємно вражений. Хоча я цілком зрячий, люблю дивитися авторське кіно, стараюся зрозуміти не тільки діалоги, але і відеоряд осягнути - і саме в цьому дуже допомагає аудіодискрипція. Фільм дуже сподобався - десять з плюсом.
sprite757 
Новенький


З нами з: 26.09.18
Востаннє: 28.02.21
Повідомлень: 9

2020-09-02 17:42  
Цікаво було побачити фільм з аудіодискрипцією, значно доповнює картину. В цілому фільм дає поживу для роздуму. Моя оцінка - тверда сімка.
Ваш часовий пояс: GMT + 2 Години

Нова тема   Відповісти