Особлива думка / Minority Report (2002) 1080p H.265 3xUkr/Eng | Sub 2xUkr/Eng

Нові коментарі

Нова тема   Відповісти
Автор Повідомлення
Anonymous 







2020-04-30 00:13  
Особлива думка / Minority Report (2002) 1080p H.265 3xUkr/Eng | Sub 2xUkr/Eng

Особлива думка / Minority Report (2002) 1080p H.265 3xUkr/Eng | Sub 2xUkr/Eng


Жанр: екшн, містика, фантастика, трилер
Країна: США
Кінокомпанія: Twentieth Century Fox Film Corporation, DreamWorks SKG, Cruise/Wagner Productions
Режисер: Стівен Спілберґ
Актори: Том Круз, Макс фон Сюдов, Колін Фаррелл, Саманта Мортон, Стів Гарріс, Петер Стормаре, Патрик Кілпатрик, Ніл Макдонаф, Лоїс Сміт, Майк Біндер, Кетрін Морріс

Сюжет:
2054. Уже шість років існує особливий відділ. На основі психо-технологій розроблена експериментальна програма, за допомогою якої працівники відділу можуть дізнатися про ще не скоєне вбивство і заарештувати підозрюваного ще до здійснення ним злочину. Ця система працює ідеально, але найстрашніше починається тоді, коли ти сам опиняєшся звинуваченим в ще не скоєному вбивстві. Одного разу керівник відділу Джон Андертон сам опиняється підозрюваним. Він звинувачується в тому, що вб'є людину, яку він навіть не знає. Джон не вірить в це, але тепер він змушений сам ховатися від своїх колег. Єдина для нього можливість довести свою невинність - це показати, що нова програма допускає помилки і аж ніяк не така ідеальна, як цього хотілося б багатьом ...

Тривалість: 02:25:15
Якість:

Відео:
кодек: H.265 (HEVC)
розмір кадру: 1920 x 806
бітрейт: 10 246 кб/с
бітова глибина: 10 біт

Увага! Перед завантаженням переконайтесь, що ваш пристрій відтворення (та/або ПЗ) підтримує H.265 (HEVC)

Аудіо # 1:
мова: українська
переклад: двоголосий закадровий ,
кодек: AC-3 2.0
бітрейт: 192 кб/с (18 кГц)
примітка: новий запис

Аудіо # 2:
мова: українська
переклад: багатоголосий закадровий ,
кодек: AC-3 2.0
бітрейт: 192 кб/с

Аудіо # 3:
мова: українська
переклад: двоголосий закадровий
кодек: AC-3 2.0
бітрейт: 192 кб/с

Аудіо # 4:
мова: англійська
переклад: оригінал
кодек: 5.1
бітрейт: 1510 кб/с

Субтитри # 1-2: (Full from Netlix, Full by w2958l)
мова: українська
тип: програмні (м'які)
формат: *.srt

Субтитри # 3-4: (Full, SDH)
мова: англійська
тип: програмні (м'які)
формат: *.srt


Info
Код:
General
Unique ID                                : 336065523827442649412881705021522702936 (0xFCD3DD95710220DDB5030CF2A719F258)
Complete name                            : Minority Report (2002) 1080p H.265 [3xUKR_ENG] [Hurtom].
Format                                   :
Format version                           : Version 4
File size                                : 12.5 GiB
Duration                                 : 2 h 25 min
Overall bit rate                         : 12.3 Mb/s
Movie name                               : Особлива думка / Minority Report (2002)
Encoded date                             : UTC 2020-09-16 17:31:12
Writing application                      : v20.0.0 ('I Am The Sun') 64-bit
Writing library                          : libebml v1.3.5 + v1.4.8
Cover                                    : Yes
Attachments                              : Cover.jpg

Video
ID                                       : 1
Format                                   : HEVC
Format/Info                              : High Efficiency Video Coding
Format profile                           : Main [email protected]@High
Codec ID                                 : V_MPEGH/ISO/HEVC
Duration                                 : 2 h 25 min
Bit rate                                 : 10.2 Mb/s
Width                                    : 1 920 pixels
Height                                   : 806 pixels
Display aspect ratio                     : 2.40:1
Frame rate mode                          : Constant
Frame rate                               : 23.976 (23976/1000) FPS
Original frame rate                      : 23.976 (24000/1001) FPS
Color space                              : YUV
Chroma subsampling                       : 4:2:0
Bit depth                                : 10 bits
Bits/(Pixel*Frame)                       : 0.276
Stream size                              : 10.4 GiB (83%)
Title                                    : Особлива думка / Minority Report (2002)
Writing library                          : x265 3.3+1-g554c887ac:[Windows][MSVC 1924][64 bit] 10bit
Encoding settings                        : cpuid=1111039 / frame-threads=3 / numa-pools=12 / wpp / no-pmode / no-pme / no-psnr / no-ssim / log-level=2 / input-csp=1 / input-res=1920x806 / interlace=0 / total-frames=200507 / level-idc=41 / high-tier=1 / uhd-bd=0 / ref=5 / no-allow-non-conformance / no-repeat-headers / annexb / no-aud / no-hrd / info / hash=0 / no-temporal-layers / open-gop / min-keyint=23 / keyint=240 / gop-lookahead=0 / bframes=10 / b-adapt=2 / b-pyramid / bframe-bias=0 / rc-lookahead=60 / lookahead-slices=4 / scenecut=40 / hist-scenecut=0 / radl=0 / no-splice / no-intra-refresh / ctu=32 / min-cu-size=8 / rect / amp / max-tu-size=32 / tu-inter-depth=4 / tu-intra-depth=4 / limit-tu=1 / rdoq-level=2 / dynamic-rd=0.00 / no-ssim-rd / signhide / no-tskip / nr-intra=0 / nr-inter=0 / no-constrained-intra / no-strong-intra-smoothing / max-merge=4 / limit-refs=2 / limit-modes / me=3 / subme=7 / merange=57 / temporal-mvp / no-frame-dup / no-hme / weightp / weightb / no-analyze-src-pics / deblock=-3:-3 / no-sao / no-sao-non-deblock / rd=6 / selective-sao=0 / no-early-skip / no-rskip / no-fast-intra / no-tskip-fast / no-cu-lossless / no-b-intra / no-splitrd-skip / rdpenalty=0 / psy-rd=2.00 / psy-rdoq=1.00 / no-rd-refine / no-lossless / cbqpoffs=0 / crqpoffs=0 / rc=crf / crf=20.0 / qcomp=0.65 / qpstep=4 / stats-write=0 / stats-read=0 / vbv-maxrate=50000 / vbv-bufsize=50000 / vbv-init=0.9 / crf-max=0.0 / crf-min=0.0 / ipratio=1.40 / pbratio=1.30 / aq-mode=1 / aq-strength=1.00 / no-cutree / zone-count=0 / no-strict-cbr / qg-size=32 / no-rc-grain / qpmax=69 / qpmin=0 / no-const-vbv / sar=1 / overscan=0 / videoformat=5 / range=0 / colorprim=1 / transfer=1 / colormatrix=1 / chromaloc=0 / display-window=0 / cll=0,0 / min-luma=0 / max-luma=1023 / log2-max-poc-lsb=8 / vui-timing-info / vui-hrd-info / slices=1 / no-opt-qp-pps / no-opt-ref-list-length-pps / no-multi-pass-opt-rps / scenecut-bias=0.05 / hist-threshold=0.01 / no-opt-cu-delta-qp / no-aq-motion / no-hdr10 / no-hdr10-opt / no-dhdr10-opt / no-idr-recovery-sei / analysis-reuse-level=0 / analysis-save-reuse-level=0 / analysis-load-reuse-level=0 / scale-factor=0 / refine-intra=0 / refine-inter=0 / refine-mv=1 / refine-ctu-distortion=0 / no-limit-sao / ctu-info=0 / no-lowpass-dct / refine-analysis-type=0 / copy-pic=1 / max-ausize-factor=1.0 / no-dynamic-refine / no-single-sei / no-hevc-aq / no-svt / no-field / qp-adaptation-range=1.00 / no-scenecut-aware-qpconformance-window-offsets / right=0 / bottom=0
Default                                  : Yes
Forced                                   : No
Color range                              : Limited
Color primaries                          : BT.709
Transfer characteristics                 : BT.709
Matrix coefficients                      : BT.709

Audio #1
ID                                       : 2
Format                                   : AC-3
Format/Info                              : Audio Coding 3
Commercial name                          : Dolby Digital
Codec ID                                 : A_AC3
Duration                                 : 2 h 25 min
Bit rate mode                            : Constant
Bit rate                                 : 192 kb/s
Channel(s)                               : 2 channels
Channel layout                           : L R
Sampling rate                            : 48.0 kHz
Frame rate                               : 31.250 FPS (1536 SPF)
Compression mode                         : Lossy
Stream size                              : 199 MiB (2%)
Title                                    : / 2.0 Ch / 192 kbps / ДЗ / 1+1, TET
Language                                 : Ukrainian
Service kind                             : Complete Main
Default                                  : Yes
Forced                                   : Yes

Audio #2
ID                                       : 3
Format                                   : AC-3
Format/Info                              : Audio Coding 3
Commercial name                          : Dolby Digital
Codec ID                                 : A_AC3
Duration                                 : 2 h 25 min
Bit rate mode                            : Constant
Bit rate                                 : 192 kb/s
Channel(s)                               : 2 channels
Channel layout                           : L R
Sampling rate                            : 48.0 kHz
Frame rate                               : 31.250 FPS (1536 SPF)
Compression mode                         : Lossy
Stream size                              : 199 MiB (2%)
Title                                    : / 2.0 Ch / 192 kbps / БЗ / Inter, K1
Language                                 : Ukrainian
Service kind                             : Complete Main
Default                                  : No
Forced                                   : No

Audio #3
ID                                       : 4
Format                                   : AC-3
Format/Info                              : Audio Coding 3
Commercial name                          : Dolby Digital
Codec ID                                 : A_AC3
Duration                                 : 2 h 25 min
Bit rate mode                            : Constant
Bit rate                                 : 192 kb/s
Channel(s)                               : 2 channels
Channel layout                           : L R
Sampling rate                            : 48.0 kHz
Frame rate                               : 31.250 FPS (1536 SPF)
Compression mode                         : Lossy
Stream size                              : 199 MiB (2%)
Title                                    : / 2.0 Ch / 192 kbps / ДЗ / ICTV
Language                                 : Ukrainian
Service kind                             : Complete Main
Default                                  : No
Forced                                   : No

Audio #4
ID                                       : 5
Format                                   :
Format/Info                              : Digital Theater Systems
Codec ID                                 : A_DTS
Duration                                 : 2 h 25 min
Bit rate mode                            : Constant
Bit rate                                 : 1 509 kb/s
Channel(s)                               : 6 channels
Channel layout                           : C L R Ls Rs LFE
Sampling rate                            : 48.0 kHz
Frame rate                               : 93.750 FPS (512 SPF)
Bit depth                                : 24 bits
Compression mode                         : Lossy
Stream size                              : 1.53 GiB (12%)
Title                                    : / 5.1 Ch / 1509 kbps / Original
Language                                 : English
Default                                  : No
Forced                                   : No

Text #1
ID                                       : 6
Format                                   : UTF-8
Codec ID                                 : S_TEXT/UTF8
Codec ID/Info                            : UTF-8 Plain Text
Duration                                 : 2 h 23 min
Bit rate                                 : 96 b/s
Count of elements                        : 1689
Stream size                              : 101 KiB (0%)
Title                                    : Full from Netlix
Language                                 : Ukrainian
Default                                  : No
Forced                                   : No

Text #2
ID                                       : 7
Format                                   : UTF-8
Codec ID                                 : S_TEXT/UTF8
Codec ID/Info                            : UTF-8 Plain Text
Duration                                 : 2 h 23 min
Bit rate                                 : 78 b/s
Count of elements                        : 1399
Stream size                              : 82.6 KiB (0%)
Title                                    : Full by w2958l
Language                                 : Ukrainian
Default                                  : No
Forced                                   : No

Text #3
ID                                       : 8
Format                                   : UTF-8
Codec ID                                 : S_TEXT/UTF8
Codec ID/Info                            : UTF-8 Plain Text
Duration                                 : 2 h 15 min
Bit rate                                 : 55 b/s
Count of elements                        : 1388
Stream size                              : 55.0 KiB (0%)
Title                                    : Full
Language                                 : English
Default                                  : No
Forced                                   : No

Text #4
ID                                       : 9
Format                                   : UTF-8
Codec ID                                 : S_TEXT/UTF8
Codec ID/Info                            : UTF-8 Plain Text
Duration                                 : 2 h 15 min
Bit rate                                 : 65 b/s
Count of elements                        : 1722
Stream size                              : 65.1 KiB (0%)
Title                                    : SDH
Language                                 : English
Default                                  : No
Forced                                   : No

Menu
00:00:00.000                             : en:Red Ball/Main Title
00:06:47.073                             : en:The Arrest of Howard Marks
00:14:49.889                             : en:Clarity
00:21:13.021                             : en:Pre-Determination
00:24:43.690                             : en:Can You See?
00:29:46.034                             : en:Ann Lively
00:37:09.518                             : en:Case 1109
00:42:42.476                             : en:Everybody Runs
00:51:41.973                             : en:Auto Assembly Line
00:55:18.606                             : en:History of the Precogs
00:59:57.385                             : en:Minority Reports
01:05:10.907                             : en:Eyeworks
01:09:41.927                             : en:Public Pool
01:17:00.657                             : en:The Spyders
01:22:21.561                             : en:Agatha Is the Key
01:27:57.897                             : en:Downloading Agatha
01:35:42.445                             : en:Balloon Man
01:39:08.776                             : en:Leo Crow
01:49:06.206                             : en:An Echo
01:54:02.001                             : en:So Much Love in This House
02:01:28.531                             : en:All Thumbs
02:06:43.095                             : en:A World Without Murder
02:13:11.817                             : en:Forgive Me, John
02:15:40.632                             : en:In Peace/End Credits
Світлини




Джерело: &
Особиста оцінка: 0 - не дивився

Подяка пану leicheman за надані укр. субтитри.
Також, подяка пану xslim за запис та зведення доріжки з телеканалу


Срібний реліз (на рейтинг впливає 50% завантаженого)
 Трекер:    Зареєстрований   

Завантажити / скачати фільм українською



відео для новачків



 Зареєстрований:   2020-09-16 20:57
 Розмір:   12.51 GB 
 Оцінка фільму:   8.7/10 (Голосів: 9)
   
Anonymous 







2020-09-16 20:57  
- Доріжка з нового запису;
- Додано укр. саби з Netflix

Barbaroid 
Новенький


З нами з: 02.11.08
Востаннє: 25.09.20
Повідомлень: 9

2020-09-17 13:48  
Я тільки сьогодні намагався згадати назву цього фільму))) Дякую! Фільм вартий повторного перегляду.
Ваш часовий пояс: GMT + 2 Години

Нова тема   Відповісти