Дім мертвих / House of the Dead (2003) AVC Ukr/Eng | sub Eng

Нові коментарі

Нова тема   Відповісти
Автор Повідомлення
Arsenfpu 
Відео Гуртом - фільмокрай
Відео Гуртом - фільмокрай


З нами з: 30.04.09
Востаннє: 05.08.20
Повідомлень: 7115

2020-04-29 22:41  
Дім мертвих / House of the Dead (2003) AVC Ukr/Eng | sub Eng

Дім мертвих / House of the Dead (2003) AVC Ukr/Eng | sub Eng


Жанр: екшн, пригодницький, жахи
Країна: США, Німеччина, Канада



Кінокомпанія: Boll Kino Beteiligungs GmbH & Co. KG, Mindfire Entertainment, Brightlight Pictures
Режисер: Уве Болл
Актори: Джонатан Черрі, Тірон Лейцо, Клінт Говард, Она Грауер, Еллі Корнелл, Вілл Сандерсон, Енука Окума

Сюжет:
Не дивлячись на погану славу віддаленого від цивілізації острова в протоці Ян Фука, компанія молодих людей збирається провести там вікенд. Вони фрахтують яхту і відправляються в, як пізніше виявляється, найжахливішу подорож в їх житті. Коли хлопці досягають острова, вони починають розуміти, що всі ті жахливі легенди, які вони чули раніше, виявляються цілком реальними, і мало того, ці жахи чекають появи самих хлопців на острові. Темні сили, що використовують найменшу можливість для нападу, чекають молодих людей в кожному темному кутку, в гущавині лісу, на глибині океану. Незабаром мандрівники починають боятися будь-якого звуку, шелесту, необережного руху. Єдине місце, яке може гарантувати хлопцям, які залишилися в живих, порятунок знаходиться в самому центрі острова і називається, як не дивно, "Дім мертвих"...


Тривалість: 01:30:15
Якість:
Відео:
кодек:
розмір кадру: 1 024 х 576
бітрейт: 2 299 кб/с

Аудіо # 1:
мова: українська
переклад: двоголосий закадровий
кодек: 2.0
бітрейт: 192 кб/с

Аудіо # 2:
мова: англійська
переклад: оригінал
кодек: 2.0
бітрейт: 192 кб/с

Субтитри:
мова: англійська
тип: програмні (м'які)
формат: *.srt
Скріншоти














Про файл
General
Unique ID : 161433555770206259248368167061386845269 (0x7972F8CF01C491A2747C397462B65C55)
Complete name : C:\House of the Dead (2003) [Ukr,Eng] AVC [Hurtom].
Format :
Format version : Version 4 / Version 2
File size : 1.69 GiB
Duration : 1 h 30 min
Overall bit rate : 2 684 kb/s
Movie name : Дім мертвих / House of the Dead (2003)
Encoded date : UTC 2020-04-29 18:56:27
Writing application : v21.0.0 ('Tardigrades Will Inherit The Earth') 32-bit
Writing library : libebml v1.3.5 + v1.4.8
Cover : Yes
Attachments : cover.jpg

Video
ID : 1
Format : AVC
Format/Info : Advanced Video Codec
Format profile : [email protected]
Format settings, CABAC : Yes
Format settings, ReFrames : 4 frames
Codec ID : V_MPEG4/ISO/AVC
Duration : 1 h 30 min
Bit rate : 2 299 kb/s
Width : 1 024 pixels
Height : 576 pixels
Display aspect ratio : 16:9
Frame rate mode : Constant
Frame rate : 23.976 (24000/1001) FPS
Color space : YUV
Chroma subsampling : 4:2:0
Bit depth : 8 bits
Scan type : Progressive
Bits/(Pixel*Frame) : 0.163
Stream size : 1.45 GiB (86%)
Writing library : core 157 r2935 545de2f
Encoding settings : cabac=1 / ref=3 / deblock=1:-1:-1 / analyse=0x3:0x113 / me=hex / subme=7 / psy=1 / psy_rd=1.00:0.15 / mixed_ref=1 / me_range=16 / chroma_me=1 / trellis=1 / 8x8dct=1 / cqm=0 / deadzone=21,11 / fast_pskip=1 / chroma_qp_offset=-3 / threads=12 / lookahead_threads=2 / sliced_threads=0 / nr=0 / decimate=1 / interlaced=0 / bluray_compat=0 / constrained_intra=0 / bframes=3 / b_pyramid=2 / b_adapt=1 / b_bias=0 / direct=1 / weightb=1 / open_gop=0 / weightp=2 / keyint=240 / keyint_min=23 / scenecut=40 / intra_refresh=0 / rc_lookahead=40 / rc=2pass / mbtree=1 / bitrate=2299 / ratetol=1.0 / qcomp=0.60 / qpmin=0 / qpmax=69 / qpstep=4 / cplxblur=20.0 / qblur=0.5 / ip_ratio=1.40 / aq=1:1.00
Default : Yes
Forced : No

Audio #1
ID : 2
Format : AC-3
Format/Info : Audio Coding 3
Mode extension : CM (complete main)
Format settings, Endianness : Big
Codec ID : A_AC3
Duration : 1 h 30 min
Bit rate mode : Constant
Bit rate : 192 kb/s
Channel(s) : 2 channels
Channel positions : Front: L R
Sampling rate : 48.0 kHz
Frame rate : 31.250 FPS (1536 spf)
Compression mode : Lossy
Stream size : 124 MiB (7%)
Title : Enter
Language : Ukrainian
Default : Yes
Forced : Yes

Audio #2
ID : 3
Format : AC-3
Format/Info : Audio Coding 3
Mode extension : CM (complete main)
Format settings, Endianness : Big
Codec ID : A_AC3
Duration : 1 h 30 min
Bit rate mode : Constant
Bit rate : 192 kb/s
Channel(s) : 2 channels
Channel positions : Front: L R
Sampling rate : 48.0 kHz
Frame rate : 31.250 FPS (1536 spf)
Compression mode : Lossy
Stream size : 124 MiB (7%)
Language : English
Default : No
Forced : No

Text
ID : 4
Format : UTF-8
Codec ID : S_TEXT/UTF8
Codec ID/Info : UTF-8 Plain Text
Duration : 1 h 29 min
Bit rate : 39 b/s
Count of elements : 727
Stream size : 25.8 KiB (0%)
Language : English
Default : Yes
Forced : No
Джерело:
За матеріал для релізу дякую п. urij546724, Hulk1987
Особиста оцінка: не дивився


Срібний реліз (на рейтинг впливає 50% завантаженого)
 Трекер:    Зареєстрований   

Завантажити / скачати фільм українською



відео для новачків



 Зареєстрований:   2020-04-29 22:41
 Розмір:   1.69 GB 
 Оцінка фільму:   4.6/10 (Голосів: 7)
   
Інші релізи
wowa145 
Новенький


З нами з: 29.10.09
Востаннє: 04.08.20
Повідомлень: 7

2020-05-01 01:07  
ахах, заходжу бачу з нового сингулярність 3.8 думаю ото ппц низький рейт
заходжу наступний цей -2.0, дно пробито чи зараз ще буде 1.5????)))

BatenkoBMW 
Свій


З нами з: 23.12.12
Востаннє: 04.07.20
Повідомлень: 65

2020-05-02 17:16  
Дурня повна! Включила фільм і паралельно займалась своїми справами, напевно, тому змогла додивитись.
Ваш часовий пояс: GMT + 2 Години

Нова тема   Відповісти