Залізний кінь [Американська версія] / The Iron Horse [American version] (1924) 1080p Eng | Sub Ukr [Німе Кіно]

Нові коментарі

Нова тема   Відповісти
Останній раз роздавалося roalad (2020-12-03)
Автор Повідомлення
Anonymous 







2020-04-29 20:38  
Залізний кінь [Американська версія] / The Iron Horse [American version] (1924) 1080p Eng | Sub Ukr [Німе Кіно]

Залізний кінь [Американська версія] / The Iron Horse [American version] (1924) 1080p Eng | Sub Ukr [Німе Кіно]


Жанр: вестерн
Країна: США



Кінокомпанія: Fox Film Corporation
Режисер: Джон Форд (в титрах не вказаний)
Актори: Джордж О'Браєн, Медж Белламі, Чарльз Едвард Булл, Сиріл Чедвік, Вілл Воллінг, Френсіс Паверс, Джозеф Фаррелл Макдональд та інші.

Сюжет:
Спрінгфілд, Іллінойс. Землемір Брендон мріє про будівництво залізниці на захід, але підрядник Марш налаштований скептично. Брендон зі своїм сином Деві виїжджає на місцевість, де виявляє новий шлях, який охоплює 200 миль в потрібному напрямку...
Трохи про фільм
Епічна історія будівництва трансконтинентальної залізниці. Форд поставив два важливих німих фільма, "Залізний кінь" (The Iron Horse 1924) і "Чотири сина" (Four Sons 1928). Фільми Форда, зокрема вестерни, висловлюють глибоку естетичну чутливість до минулого Америки і духу кордонів. Форд був народним художником, майстром оповідання і поетом рухомого образу. У його композиціях є класична сила, в якій маси людей і їх природне оточення прекрасно накладені один на одного, часто в довгих, захоплюючих дух кадрах. Багато з них зняті в Долині монументів, де він розташував кілька своїх фільмів. Рух людей і коней в його вестернах рідко кому вдавалося перевершити за королівським спокоєм і ховаєтеся сила. Музичний супровід, часто варіації на народні мелодії, грають роль важливішу, ніж діалог в багатьох фільмах Форда.
Тривалість: 02:29:40
Якість:
Відео:
кодек:
розмір кадру: 1506х1080
бітрейт: 8 мб/с

Аудіо # 1:
мова: відсутня, лише музичний супровід від Крістофер Кальєндо
переклад: оригінал
кодек: -HD 2.0
бітрейт: 1509 кб/с

Аудіо # 2:
мова: відсутня, лише музичний супровід від Крістофер Кальєндо
переклад: оригінал
кодек: -HD 5.1
бітрейт: 1509 кб/с

Субтитри:
мова: українська
тип: програмні (м'які)
формат: *.
переклад: власний аматорський, з англійської (також з перекладом помагав Neytreenor)
Info
General
Unique ID : 81610965116093552439284322982448302034 (0x3D65B33D143E09BCDE31C2CEF4CB87D2)
Complete name : The Iron Horse (1924) 1080p [UKR SUB].
Format :
Format version : Version 4
File size : 11.5 GiB
Duration : 2 h 29 min
Overall bit rate : 11.0 Mb/s
Encoded date : UTC 2020-04-29 18:00:22
Writing application : v45.0.0 ('Heaven in Pennies') 64-bit
Writing library : libebml v1.3.10 + v1.5.2
Attachments : Poster.jpg

Video
ID : 1
Format : AVC
Format/Info : Advanced Video Codec
Format profile : [email protected]
Format settings : CABAC / 5 Ref Frames
Format settings, CABAC : Yes
Format settings, Reference : 5 frames
Codec ID : V_MPEG4/ISO/AVC
Duration : 2 h 29 min
Bit rate : 8 000 kb/s
Width : 1 506 pixels
Height : 1 080 pixels
Display aspect ratio : 1.394
Frame rate mode : Constant
Frame rate : 23.976 (24000/1001) FPS
Color space : YUV
Chroma subsampling : 4:2:0
Bit depth : 8 bits
Scan type : Progressive
Bits/(Pixel*Frame) : 0.205
Stream size : 8.36 GiB (73%)
Writing library : core 157 r2935 545de2f
Encoding settings : cabac=1 / ref=5 / deblock=1:-1:-1 / analyse=0x3:0x113 / me=umh / subme=11 / psy=1 / psy_rd=1.00:0.15 / mixed_ref=1 / me_range=48 / chroma_me=1 / trellis=2 / 8x8dct=1 / cqm=0 / deadzone=21,11 / fast_pskip=0 / chroma_qp_offset=-5 / threads=34 / lookahead_threads=5 / sliced_threads=0 / nr=0 / decimate=1 / interlaced=0 / bluray_compat=0 / constrained_intra=0 / bframes=8 / b_pyramid=2 / b_adapt=2 / b_bias=0 / direct=1 / weightb=1 / open_gop=0 / weightp=2 / keyint=240 / keyint_min=23 / scenecut=40 / intra_refresh=0 / rc_lookahead=60 / rc=2pass / mbtree=1 / bitrate=8000 / ratetol=1.0 / qcomp=0.60 / qpmin=10 / qpmax=69 / qpstep=4 / cplxblur=20.0 / qblur=0.5 / vbv_maxrate=50000 / vbv_bufsize=62500 / nal_hrd=none / filler=0 / ip_ratio=1.40 / aq=1:1.00
Default : Yes
Forced : No

Audio #1
ID : 2
Format :
Format/Info : Digital Theater Systems
Codec ID : A_DTS
Duration : 2 h 29 min
Bit rate mode : Constant
Bit rate : 1 509 kb/s
Channel(s) : 2 channels
Channel layout : Lt Rt
Sampling rate : 48.0 kHz
Frame rate : 93.750 FPS (512 SPF)
Bit depth : 24 bits
Compression mode : Lossy
Stream size : 1.58 GiB (14%)
Title : Music 2.0
Default : Yes
Forced : No

Audio #2
ID : 3
Format :
Format/Info : Digital Theater Systems
Codec ID : A_DTS
Duration : 2 h 29 min
Bit rate mode : Constant
Bit rate : 1 509 kb/s
Channel(s) : 6 channels
Channel layout : C L R Ls Rs LFE
Sampling rate : 48.0 kHz
Frame rate : 93.750 FPS (512 SPF)
Bit depth : 24 bits
Compression mode : Lossy
Stream size : 1.58 GiB (14%)
Title : Music 5.1
Default : No
Forced : No

Text
ID : 4
Format :
Codec ID : S_TEXT/
Codec ID/Info : Advanced Sub Station Alpha
Duration : 2 h 29 min
Bit rate : 33 b/s
Count of elements : 283
Compression mode : Lossless
Stream size : 36.9 KiB (0%)
Language : Ukrainian
Default : Yes
Forced : No
Оригінальні постери 1924 року


Скріншоти







Цікаві факти
- Кухонний персонал для фільму в основному складався з китайських кухарів. Деякі з них були робочими на трансконтинентальній залізниці в 1869 році, тому ж проекті будівництва, який лежить в основі цього фільму.

- На місці зйомок, працівники побудували велике місто, у якому в багатьох будівлях були робочі кімнати. Ці кімнати незабаром стали житловими приміщеннями, також їхня площа використовувалась для зберігання техніки і іншого. Лабораторія по редагуванню була створена у будинку пошти.

- Хоча в повноекранному заголовку написано "Джон Форд Продакшин", фактичної заслуги режисера у фільмі немає.

- Авторські права вже втратили силу, цей фільм та всі інші, створені у 1924 р., Потрапляють у суспільне надбання США у 2020 році.

- Реліз цього фільму містить два різних редагування - одне для американського ринку та одне для Європи. Американський реліз на 16 хвилин довший за європейський реліз. Американський реліз присвячений пам’яті Авраама Лінкольна, тоді як європейський реліз присвячений пам’яті Джорджа Стівенсона. В американському релізі персонаж Фреда Колера названий Дерю, а в європейському релізі його персонаж названий Бауман.
Помилки у фільмі
- У примітці на титульній картці зазначено, що в заключних сценах зустрічі західної та східної залізної дороги режисер Джон Форд використовував потяги, які в цей день зустрічалися, Юпітер та №116. Ця насправді не була правда. Не тільки жоден з локомотивів не був оригінальним, але й один із фактичних локомотивів був демонтований на брухт за багато років до цього, а саме після реорганізації Централ Пасифік як Созерн Пасифік паровий двигун під номером SP1195 був модернізований на вугільний і потім проданий до долини Гіла, Глобуса на Північну залізницю в Арізоні. На жаль, його було знято в 1906 році за 1000 доларів, тому він не міг бути знятий у цьому фільмі.

- Часто чоловіків, що працюють на залізниці, бачать, як вони співають "Довби, землю, довби". Ця пісня була написана і вперше опублікована в 1888 році, задовго після закінчення трансконтинентальної залізниці.

- Паровий локомотив Юніон Пасифік у фільмі на церемонії "Золотий шип" був UP119, а не UP116.

- У деяких сценах принаймні одного із працівників можна побачити, як він потрапляє поруч із залізничним шипом, замість того, щоб насправді загнати шип у залізничну колію.
Джерело:
Особиста оцінка: 9 - давно не бачив настільки якісне кіно

Дуже дякую Neytreenor за находження blu-ray!


Золотий реліз (завантажене не впливає на рейтинг)
 Трекер:    Зареєстрований   

Завантажити / скачати фільм українською



відео для новачків



 Зареєстрований:   2020-04-29 20:38
 Розмір:   11.52 GB 
 Оцінка фільму:   9/10 (Голосів: 1)
   
Anonymous 







2020-04-29 20:43  
Якщо хтось побачить косяки в описі/субтитрам, пишіть де і варіанти виправлення, дякую!!
Ваш часовий пояс: GMT + 2 Години

Нова тема   Відповісти