Аліса в країні чудес / Alice in Wonderland (1951) 1080p H.265 Ukr/Eng | Sub Eng

Нові коментарі

Нова тема   Відповісти
Автор Повідомлення
Anonymous 







2020-04-29 19:53  
Аліса в країні чудес / Alice in Wonderland (1951) 1080p H.265 Ukr/Eng | Sub Eng

Аліса в країні чудес / Alice in Wonderland (1951) 1080p H.265 Ukr/Eng | Sub Eng


Жанр: Казки, Комедія, Мультфільм, Реліз, Фантастика
Країна: США
Кінокомпанія: Walt Disney Home Video
Режисер: Тобі Клайд Джеронімі, Вілфред Джексон, Гемільтон Ласкі

Сюжет:
Аліса винахідлива і страшенно допитлива дівчинка. Вона постійно потрапляє в незвичайні ситуації, не звертаючи найменшої уваги на їх абсурдність. Якими б важкими ці ситуації не були, Аліса завжди знайде вихід або ж просто придумає його

Тривалість: 01:15:16
Якість:

Відео:
кодек: H.265 (HEVC)
розмір кадру: 1428 x 1080
бітрейт: 4 683 кб/с
бітова глибина: 10 біт

Увага! Перед завантаженням переконайтесь, що ваш пристрій відтворення (та/або ПЗ) підтримує H.265 (HEVC)

Аудіо # 1:
мова: українська
переклад: багатоголосий закадровий | UFDUB.com
кодек: 2.0
бітрейт: 128 кб/с

Аудіо # 2:
мова: англійська
переклад: оригінал
кодек: 5.1
бітрейт: 1510 кб/с

Субтитри # 1-2: (Full, SDH)
мова: англійська
тип: програмні (м'які)
формат: *.srt


Info
Код:
General
Unique ID                                : 294789001465642595567641457594939300561 (0xDDC64BE8B9E59D7FEAEC7FC04B315AD1)
Complete name                            : Alice in Wonderland (1951) 1080p H.265 [UKR_ENG] [Hurtom].
Format                                   :
Format version                           : Version 4
File size                                : 3.33 GiB
Duration                                 : 1 h 15 min
Overall bit rate                         : 6 323 kb/s
Movie name                               : Аліса в країні чудес / Alice in Wonderland (1951)
Encoded date                             : UTC 2020-04-29 17:42:03
Writing application                      : v20.0.0 ('I Am The Sun') 64-bit
Writing library                          : libebml v1.3.5 + v1.4.8
Cover                                    : Yes
Attachments                              : Cover.jpg

Video
ID                                       : 1
Format                                   : HEVC
Format/Info                              : High Efficiency Video Coding
Format profile                           : Main [email protected]@High
Codec ID                                 : V_MPEGH/ISO/HEVC
Duration                                 : 1 h 15 min
Bit rate                                 : 4 683 kb/s
Width                                    : 1 428 pixels
Height                                   : 1 080 pixels
Display aspect ratio                     : 4:3
Frame rate mode                          : Constant
Frame rate                               : 23.976 (23976/1000) FPS
Original frame rate                      : 23.976 (24000/1001) FPS
Color space                              : YUV
Chroma subsampling                       : 4:2:0
Bit depth                                : 10 bits
Bits/(Pixel*Frame)                       : 0.127
Stream size                              : 2.46 GiB (74%)
Title                                    : Аліса в країні чудес / Alice in Wonderland (1951)
Writing library                          : x265 3.3+1-g554c887ac:[Windows][MSVC 1924][64 bit] 10bit
Encoding settings                        : cpuid=1111039 / frame-threads=3 / numa-pools=12 / wpp / no-pmode / no-pme / no-psnr / no-ssim / log-level=2 / input-csp=1 / input-res=1428x1080 / interlace=0 / total-frames=108280 / level-idc=41 / high-tier=1 / uhd-bd=0 / ref=5 / no-allow-non-conformance / no-repeat-headers / annexb / no-aud / no-hrd / info / hash=0 / no-temporal-layers / open-gop / min-keyint=23 / keyint=240 / gop-lookahead=0 / bframes=10 / b-adapt=2 / b-pyramid / bframe-bias=0 / rc-lookahead=60 / lookahead-slices=4 / scenecut=40 / hist-scenecut=0 / radl=0 / no-splice / no-intra-refresh / ctu=32 / min-cu-size=8 / rect / amp / max-tu-size=32 / tu-inter-depth=4 / tu-intra-depth=4 / limit-tu=1 / rdoq-level=2 / dynamic-rd=0.00 / no-ssim-rd / signhide / no-tskip / nr-intra=0 / nr-inter=0 / no-constrained-intra / no-strong-intra-smoothing / max-merge=4 / limit-refs=2 / limit-modes / me=3 / subme=7 / merange=57 / temporal-mvp / no-frame-dup / no-hme / weightp / weightb / no-analyze-src-pics / deblock=-3:-3 / no-sao / no-sao-non-deblock / rd=6 / selective-sao=0 / no-early-skip / no-rskip / no-fast-intra / no-tskip-fast / no-cu-lossless / no-b-intra / no-splitrd-skip / rdpenalty=0 / psy-rd=2.00 / psy-rdoq=1.00 / no-rd-refine / no-lossless / cbqpoffs=0 / crqpoffs=0 / rc=crf / crf=20.0 / qcomp=0.65 / qpstep=4 / stats-write=0 / stats-read=0 / vbv-maxrate=50000 / vbv-bufsize=50000 / vbv-init=0.9 / crf-max=0.0 / crf-min=0.0 / ipratio=1.40 / pbratio=1.30 / aq-mode=1 / aq-strength=1.00 / no-cutree / zone-count=0 / no-strict-cbr / qg-size=32 / no-rc-grain / qpmax=69 / qpmin=0 / no-const-vbv / sar=1 / overscan=0 / videoformat=5 / range=0 / colorprim=1 / transfer=1 / colormatrix=1 / chromaloc=0 / display-window=0 / cll=0,0 / min-luma=0 / max-luma=1023 / log2-max-poc-lsb=8 / vui-timing-info / vui-hrd-info / slices=1 / no-opt-qp-pps / no-opt-ref-list-length-pps / no-multi-pass-opt-rps / scenecut-bias=0.05 / hist-threshold=0.01 / no-opt-cu-delta-qp / no-aq-motion / no-hdr10 / no-hdr10-opt / no-dhdr10-opt / no-idr-recovery-sei / analysis-reuse-level=0 / analysis-save-reuse-level=0 / analysis-load-reuse-level=0 / scale-factor=0 / refine-intra=0 / refine-inter=0 / refine-mv=1 / refine-ctu-distortion=0 / no-limit-sao / ctu-info=0 / no-lowpass-dct / refine-analysis-type=0 / copy-pic=1 / max-ausize-factor=1.0 / no-dynamic-refine / no-single-sei / no-hevc-aq / no-svt / no-field / qp-adaptation-range=1.00 / no-scenecut-aware-qpconformance-window-offsets / right=0 / bottom=0
Default                                  : Yes
Forced                                   : No
Color range                              : Limited
Color primaries                          : BT.709
Transfer characteristics                 : BT.709
Matrix coefficients                      : BT.709

Audio #1
ID                                       : 2
Format                                   : LC
Format/Info                              : Advanced Audio Codec Low Complexity
Codec ID                                 : A_AAC-2
Duration                                 : 1 h 15 min
Bit rate                                 : 128 kb/s
Channel(s)                               : 2 channels
Channel layout                           : L R
Sampling rate                            : 48.0 kHz
Frame rate                               : 46.875 FPS (1024 SPF)
Compression mode                         : Lossy
Stream size                              : 69.2 MiB (2%)
Title                                    : / 2.0 Ch / 128 kbps / БЗ / UFDUB.com
Language                                 : Ukrainian
Default                                  : Yes
Forced                                   : Yes

Audio #2
ID                                       : 3
Format                                   :
Format/Info                              : Digital Theater Systems
Codec ID                                 : A_DTS
Duration                                 : 1 h 15 min
Bit rate mode                            : Constant
Bit rate                                 : 1 509 kb/s
Channel(s)                               : 6 channels
Channel layout                           : C L R Ls Rs LFE
Sampling rate                            : 48.0 kHz
Frame rate                               : 93.750 FPS (512 SPF)
Bit depth                                : 24 bits
Compression mode                         : Lossy
Stream size                              : 812 MiB (24%)
Title                                    : / 5.1 Ch / 1509 kbps / Original
Language                                 : English
Default                                  : No
Forced                                   : No

Text #1
ID                                       : 4
Format                                   : UTF-8
Codec ID                                 : S_TEXT/UTF8
Codec ID/Info                            : UTF-8 Plain Text
Duration                                 : 1 h 14 min
Bit rate                                 : 66 b/s
Count of elements                        : 974
Stream size                              : 36.4 KiB (0%)
Title                                    : Full
Language                                 : English
Default                                  : No
Forced                                   : No

Text #2
ID                                       : 5
Format                                   : UTF-8
Codec ID                                 : S_TEXT/UTF8
Codec ID/Info                            : UTF-8 Plain Text
Duration                                 : 1 h 14 min
Bit rate                                 : 64 b/s
Count of elements                        : 1076
Stream size                              : 35.6 KiB (0%)
Title                                    : SDH
Language                                 : English
Default                                  : No
Forced                                   : No

Menu
00:00:00.000                             : en:Opening Credits ("Alice in Wonderland")
00:01:42.102                             : en:Alice's History Lesson
00:02:58.011                             : en:"In A World of My Own"
00:04:48.622                             : en:The White Rabbit ("I'm Late")
00:07:28.740                             : en:Curlouser and Curlouser
00:08:11.658                             : en:The Bottle On The Table
00:10:33.091                             : en:Through the Keyhole in a Bottle
00:13:14.711                             : en:Alice Meets Tweedledee and Tweedledum ("How D'Ye Do And Shake hands")
00:15:03.528                             : en:"The Walrus and the Carpenter"
00:20:53.252                             : en:The White Rabbit's House
00:22:47.074                             : en:A Lizard With a Ladder
00:26:21.413                             : en:A Garden of Talking Flowers
00:27:16.677                             : en:"All in The Golden Afternoon"
00:31:50.075                             : en:Advice From a Caterpillar
00:36:34.234                             : en:More Ups and Downs for Alice
00:38:30.141                             : en:The Cheshire Cat
00:41:36.661                             : en:A Mad Tea Party ("The Unbirthday Song")
00:47:45.488                             : en:Who's Got The Time?
00:50:00.623                             : en:The Tulgey Wood
00:53:58.569                             : en:"Very Good Advice"
00:56:08.865                             : en:The Cheshire Cat AGain
00:57:18.435                             : en:"Painting The Roses Red"
00:58:58.910                             : en:The March of the Cards
01:00:09.981                             : en:The Queen of Hearts
01:02:35.710                             : en:A Game of Croquet
01:06:52.050                             : en:Alice's Trial
01:11:29.785                             : en:The Chase
Світлини




Джерело: &
Особиста оцінка: 0 - не дивився


Авторський реліз (завантажувати можна без реєстрації)
 Трекер:    Зареєстрований   

Завантажити / скачати мультфільм українською



відео для новачків



 Зареєстрований:   2020-04-29 19:53
 Розмір:   3.33 GB 
 Оцінка мультфільму:   9.8/10 (Голосів: 6)
   
Інші релізи
omm 
Відео Гуртом - фільмокрай
Відео Гуртом - фільмокрай


З нами з: 12.06.12
Востаннє: 28.02.21
Повідомлень: 2443

2020-04-29 20:56  
Посилання на імдб виправте - там "Повернення Джафара"
Anonymous 







2020-04-29 23:09  
omm
Дякую. Виправив! Happy

Ваш часовий пояс: GMT + 2 Години

Нова тема   Відповісти