Смертельна помилка / Tödlicher Irrtum (1970) 1080p Ukr/Ger

Нові коментарі

Нова тема   Відповісти
Останній раз роздавалося romanmcr (2020-06-24)
Автор Повідомлення
PatataFrita 
Свій


З нами з: 05.04.20
Востаннє: 08.09.20
Повідомлень: 83

2020-04-28 17:31  
Смертельна помилка / Tödlicher Irrtum (1970) 1080p Ukr/Ger

Смертельна помилка / Tödlicher Irrtum (1970) 1080p Ukr/Ger


Жанр: вестерн
Країна: НДР



Кінокомпанія: Deutsche Film (DEFA)
Режисер: Конрад Петцольд [Konrad Petzold]
Актори: Гойко Мітіч [Gojko Mitic], Армін Мюллер-Шталь [Armin Mueller-Stahl], Гоппе Рольф [Rolf Hoppe], Аннекатрін Бюргер [Annekathrin Bürger], Кристина Міколаєвська [Krystyna Mikolajewska], Каті Буш [Kati Bus], Ганньо Гассе [Hannjo Hasse], Ганс Клерінг [Hans Klering].

Сюжет:
Америка, кінець XIX століття. Недалеко від Скелястих гір компанія "Вайомінг Ойл" виявляє родовище і починає видобуток нафти. Вожді індіанських племен, на землях яких ведуться розробки, стають партнерами-акціонерами. Але один за іншим вони загадково гинуть. Підозра в їх усуненні падає на білого підприємця Майка Аллисона...


Тривалість: 01:35:24
Якість: 1080p
Відео:
кодек:
розмір кадру: 1920x816
бітрейт: 7817 кб/с

Аудіо # 1:
мова: українська
переклад: двоголосий закадровий
кодек: 2.0
бітрейт: 192 кб/с

Аудіо # 2:
мова: німецька
переклад: оригінал
кодек: 2.0
бітрейт: 384 кб/с

Джерело озвучення:
Info
General
Unique ID : 313686371441892692430315185925800736645 (0xEBFDCC2EE5F95D4954C78F4E50063785)
Complete name : D:\Todlicher.Irrtum.1970. 1080p.DD2.0-Hurtom.
Format :
Format version : Version 4
File size : 5.59 GiB
Duration : 1 h 35 min
Overall bit rate : 8 395 kb/s
Movie name : Todlicher.Irrtum.1970. 1080p.DD2.0-Hurtom
Encoded date : UTC 2020-04-28 14:11:29
Writing application : v45.0.0 ('Heaven in Pennies') 32-bit
Writing library : libebml v1.3.10 + v1.5.2

Video
ID : 1
Format : AVC
Format/Info : Advanced Video Codec
Format profile : [email protected]
Format settings : CABAC / 5 Ref Frames
Format settings, CABAC : Yes
Format settings, Reference : 5 frames
Codec ID : V_MPEG4/ISO/AVC
Duration : 1 h 35 min
Bit rate : 7 817 kb/s
Width : 1 920 pixels
Height : 816 pixels
Display aspect ratio : 2.35:1
Frame rate mode : Constant
Frame rate : 25.000 FPS
Color space : YUV
Chroma subsampling : 4:2:0
Bit depth : 8 bits
Scan type : Progressive
Bits/(Pixel*Frame) : 0.200
Stream size : 5.21 GiB (93%)
Writing library : core 148 r2638 7599210
Encoding settings : cabac=1 / ref=5 / deblock=1:0:0 / analyse=0x3:0x133 / me=umh / subme=7 / psy=1 / psy_rd=1.00:0.00 / mixed_ref=1 / me_range=16 / chroma_me=1 / trellis=1 / 8x8dct=1 / cqm=0 / deadzone=21,11 / fast_pskip=0 / chroma_qp_offset=-2 / threads=6 / lookahead_threads=1 / sliced_threads=0 / nr=0 / decimate=1 / interlaced=0 / bluray_compat=0 / constrained_intra=0 / bframes=3 / b_pyramid=2 / b_adapt=1 / b_bias=0 / direct=1 / weightb=1 / open_gop=0 / weightp=1 / keyint=250 / keyint_min=25 / scenecut=40 / intra_refresh=0 / rc_lookahead=40 / rc=2pass / mbtree=1 / bitrate=7817 / ratetol=1.0 / qcomp=0.60 / qpmin=0 / qpmax=69 / qpstep=4 / cplxblur=20.0 / qblur=0.5 / ip_ratio=1.40 / aq=1:1.00
Default : No
Forced : No

Audio #1
ID : 2
Format : AC-3
Format/Info : Audio Coding 3
Commercial name : Dolby Digital
Codec ID : A_AC3
Duration : 1 h 35 min
Bit rate mode : Constant
Bit rate : 192 kb/s
Channel(s) : 2 channels
Channel layout : L R
Sampling rate : 48.0 kHz
Frame rate : 31.250 FPS (1536 SPF)
Compression mode : Lossy
Stream size : 131 MiB (2%)
Title : 2.0 E-Film DVO
Language : Ukrainian
Service kind : Complete Main
Default : Yes
Forced : No

Audio #2
ID : 3
Format : AC-3
Format/Info : Audio Coding 3
Commercial name : Dolby Digital
Codec ID : A_AC3
Duration : 1 h 35 min
Bit rate mode : Constant
Bit rate : 384 kb/s
Channel(s) : 2 channels
Channel layout : L R
Sampling rate : 48.0 kHz
Frame rate : 31.250 FPS (1536 SPF)
Compression mode : Lossy
Stream size : 262 MiB (5%)
Title : Original
Language : German
Service kind : Complete Main
Default : No
Forced : No

Menu
00:00:00.000 : en:00:00:00.000
00:07:48.000 : en:00:07:48.000
00:18:26.880 : en:00:18:26.880
00:30:12.480 : en:00:30:12.480
00:41:40.320 : en:00:41:40.320
00:52:46.560 : en:00:52:46.560
01:06:46.080 : en:01:06:46.080
01:19:12.960 : en:01:19:12.960
01:30:11.040 : en:01:30:11.040
01:35:11.520 : en:01:35:11.520
Скріншоти
Велика подяка пану krigg070 за запис та синхронізацію.

Джерело: &
Особиста оцінка: 8 - мені сподобалося


Срібний реліз (на рейтинг впливає 50% завантаженого)
 Трекер:    Зареєстрований   

Завантажити / скачати фільм українською



відео для новачків



 Зареєстрований:   2020-04-28 17:31
 Розмір:   5.59 GB 
 Оцінка фільму:   9.7/10 (Голосів: 3)
   
Інші релізи
wrongman 
Попереджень: 1
Попереджень: 1 


З нами з: 11.11.08
Востаннє: 20.08.20
Повідомлень: 179

2020-04-29 21:48  
PatataFrita написано:
Режисер: Конрад Петцольде

Виправте на
Режисер: Конрад Петцольд

PatataFrita 
Свій


З нами з: 05.04.20
Востаннє: 08.09.20
Повідомлень: 83

2020-04-30 08:22  
wrongman
Спасибі, виправлено.

roalad 
VIP


З нами з: 22.06.12
Востаннє: 01.10.20
Повідомлень: 365

2020-07-03 22:44  
Поділіться цим релізом......
Ваш часовий пояс: GMT + 2 Години

Нова тема   Відповісти