Опівнічний ковбой [Крітеріон #925] / Midnight Cowboy [Criterion#925] (1969) AVC Ukr/Eng | Sub Eng

Нові коментарі

Нова тема   Відповісти
Автор Повідомлення
21jumpstreet 
VIP


З нами з: 03.07.12
Востаннє: 05.07.20
Повідомлень: 1091

2020-04-28 16:54  
Опівнічний ковбой [Крітеріон #925] / Midnight Cowboy [Criterion#925] (1969) AVC Ukr/Eng | Sub Eng


Опівнічний ковбой [Крітеріон #925] / Midnight Cowboy [Criterion#925] (1969) AVC Ukr/Eng | Sub Eng


Жанр: Драма
Країна: США



Кінокомпанія: MGM, United Artists
Режисер: Джон Шлезінґер / John Schlesinger
Актори: Дастін Гоффман / Dustin Hoffman, Джон Войт / Jon Voight, Сільвія Майлз / Sylvia Miles, Джон Маꥳвен / John McGiver та інші

Сюжет:
Джо Бак, життєрадісний та наївний хлопець з крихітного техаського містечка, вирушає у Нью-Йорк, щоби використати свої непересічні сексуальні здібності для задоволення потреб багатих жінок за плату. Але справи в нього йдуть не дуже добре, і невдовзі вуличний бомж-туберкульозник Ріццо переконує Джо, що йому потрібен менеджер. Хоча Джо не в захваті від того, що доводиться обслуговувати у нужнику гомосексуалістів, вони з Ріццо стають справжніми друзями. Вони хочуть заробити багато грошей і поїхати у Флориду.


Тривалість: 01:53:18
Якість: AVC (Criterion#925)
Відео:
кодек:
розмір кадру: 768 х 416
бітрейт: 1905 кб/с

Аудіо # 1:
мова: українська
переклад: двоголосий закадровий
кодек: 2.0
бітрейт: 192 кб/с
Ролі озвучили: Олександр Завальський та Ніна Касторф

Аудіо # 2:
мова: англійська
переклад: оригінал
кодек: 5.1
бітрейт: 384 кб/с
Скріншоти



Info
C:\Новая папка\Midnight Cowboy (1969) AVC [Ukr,Eng] [Hurtom].
General
Unique ID : 73837216064413803077418562577369171216 (0x378C87D1A83C10A1DE2A7BA3B2508510)
Complete name : C:\Новая папка\Midnight Cowboy (1969) AVC [Ukr,Eng] [Hurtom].
Format :
Format version : Version 4 / Version 2
File size : 1.97 GiB
Duration : 1 h 53 min
Overall bit rate : 2 484 kb/s
Movie name : Midnight Cowboy (1969) AVC [Ukr,Eng] [Hurtom]
Encoded date : UTC 2020-04-30 06:46:55
Writing application : v22.0.0 ('At The End Of The World') 32-bit
Writing library : libebml v1.3.5 + v1.4.8
Attachments : Midnight Cowboy.jpg
Video #1
ID : 1
Format : AVC
Format/Info : Advanced Video Codec
Format profile : [email protected]
Format settings, CABAC : Yes
Format settings, ReFrames : 15 frames
Codec ID : V_MPEG4/ISO/AVC
Duration : 1 h 53 min
Bit rate : 1 905 kb/s
Width : 768 pixels
Height : 416 pixels
Display aspect ratio : 1.85:1
Frame rate mode : Constant
Frame rate : 23.976 (24000/1001) FPS
Color space : YUV
Chroma subsampling : 4:2:0
Bit depth : 8 bits
Scan type : Progressive
Bits/(Pixel*Frame) : 0.249
Stream size : 1.51 GiB (77%)
Writing library : core 160 r3000 33f9e14
Encoding settings : cabac=1 / ref=15 / deblock=1:-2:-1 / analyse=0x3:0x133 / me=umh / subme=11 / psy=1 / psy_rd=1.15:0.05 / mixed_ref=1 / me_range=32 / chroma_me=1 / trellis=2 / 8x8dct=1 / cqm=0 / deadzone=21,11 / fast_pskip=0 / chroma_qp_offset=-3 / threads=13 / lookahead_threads=3 / sliced_threads=0 / nr=0 / decimate=1 / interlaced=0 / bluray_compat=0 / constrained_intra=0 / bframes=16 / b_pyramid=2 / b_adapt=2 / b_bias=0 / direct=1 / weightb=1 / open_gop=0 / weightp=2 / keyint=250 / keyint_min=23 / scenecut=40 / intra_refresh=0 / rc_lookahead=40 / rc=crf / mbtree=0 / crf=20.2 / qcomp=0.60 / qpmin=0 / qpmax=69 / qpstep=4 / vbv_maxrate=62500 / vbv_bufsize=78125 / crf_max=0.0 / nal_hrd=none / filler=0 / ip_ratio=1.40 / pb_ratio=1.25 / aq=2:1.00
Language : English
Default : Yes
Forced : No
Color range : Limited
Matrix coefficients : BT.709
Audio #2
ID : 2
Format : AC-3
Format/Info : Audio Coding 3
Mode extension : CM (complete main)
Format settings, Endianness : Big
Codec ID : A_AC3
Duration : 1 h 53 min
Bit rate mode : Constant
Bit rate : 192 kb/s
Channel(s) : 2 channels
Channel positions : Front: L R
Sampling rate : 48.0 kHz
Frame rate : 31.250 FPS (1536 spf)
Compression mode : Lossy
Stream size : 156 MiB (8%)
Title : Midnight cowboy (1969) AVC DVO 1+1
Language : Ukrainian
Default : Yes
Forced : No
Audio #3
ID : 3
Format : AC-3
Format/Info : Audio Coding 3
Mode extension : CM (complete main)
Format settings, Endianness : Big
Codec ID : A_AC3
Duration : 1 h 53 min
Bit rate mode : Constant
Bit rate : 384 kb/s
Channel(s) : 6 channels
Channel positions : Front: L C R, Side: L R, LFE
Sampling rate : 48.0 kHz
Frame rate : 31.250 FPS (1536 spf)
Compression mode : Lossy
Stream size : 311 MiB (15%)
Title : Original
Language : English
Default : No
Forced : No
Text #4
ID : 4
Format : UTF-8
Codec ID : S_TEXT/UTF8
Codec ID/Info : UTF-8 Plain Text
Duration : 1 h 49 min
Bit rate : 68 b/s
Count of elements : 1457
Stream size : 55.2 KiB (0%)
Title : Full
Language : English
Default : No
Forced : No
Величезні та найщиріші подяки за роботу над релізом:
kryk-v.ya., olgaya. taraskill1





Срібний реліз (на рейтинг впливає 50% завантаженого)
 Трекер:    Зареєстрований   

Завантажити / скачати фільм українською



відео для новачків



 Зареєстрований:   2020-04-30 10:45
 Розмір:   1.97 GB 
 Оцінка фільму:   8.2/10 (Голосів: 5)
   
Інші релізи
bot 
робот


З нами з: 30.09.07
Востаннє: 26.05.05
Повідомлень: 24971

2020-04-28 16:55  
Тему перенесено з Фільми до форуму Анонси релізів


21jumpstreet

bot 
робот


З нами з: 30.09.07
Востаннє: 26.05.05
Повідомлень: 24971

2020-04-30 10:34  
Тему перенесено з Анонси релізів до форуму Фільми


21jumpstreet

Ваш часовий пояс: GMT + 2 Години

Нова тема   Відповісти