Грімм (Сезон 1) / Grimm (Season 1) (2011-2012) 720p Ukr/Eng

Нові коментарі

Нова тема   Відповісти
Автор Повідомлення
Anonymous 







2020-04-28 14:33  
Грімм (Сезон 1) / Grimm (Season 1) (2011-2012) 720p Ukr/Eng

Грімм (Сезон 1) / Grimm (Season 1) (2011-2012) 720p Ukr/Eng


Жанр: фентезі, драма, жахи
Країна: США



Кінокомпанія: GK Productions, Hazy Mills Productions, Universal Television
Режисер: Стівен Карпентер (Stephen Carpenter), Девід Грінволт (David Greenwalt), Джим Коуф (Jim Kouf)
Актори: Дейв Ґвінтолі (David Giuntoli), Расселл Горнсбі (Russell Hornsby), Сайлас Вейр Мітчелл (Silas Weir Mitchell), Бітсі Таллоч (Elizabeth Tulloch) та інші

Сюжет:
Молодий детектив Нік Беркхардт є спадкоємцем роду Грімм - мисливців за нечистю, яка живе у світі людей. Всі нащадки Гриммів володіють ключовою здатністю - вони можуть бачити справжню сутність злих тварюк, під якою б личиною вони не ховалися. Соратником Ніка стає перевихований "Різник" - перевертень Едді Монро, що допомагає йому пізнавати таїнства древньої міфології.


Тривалість: 1 серія: ~43 хв. (цілком серій: 22)
Перелік серій
01) Pilot
02) Bears Will Be Bears
03) BeeWare
04) Lonelyhearts
05) Danse Macabre
06) The Three Bad Wolves
07) Let Your Hair Down
08) Game Ogre
09) Of Mouse and Man
10) Organ Grinder
11) Tarantella
12) Last Grimm Standing
13) Three Coins in a Fuchsbau
14) Plumed Serpent
15) Island of Dreams
16) The Thing with Feathers
17) Love Sick
18) Cat and Mouse
19) Leave It to Beavers
20) Happily Ever Aftermath
21) Big Feet
22) Woman in Black
Якість:
Відео:
кодек:
розмір кадру: 1280 x 720
бітрейт: ~5700 кб/с

Аудіо # 1:
мова: українська
переклад: багатоголосий закадровий
кодек: 2.0
бітрейт: 192 кб/с

Аудіо # 2:
мова: англійська
переклад: оригінал
кодек: 5.1
бітрейт: 448 кб/с

Джерело озвучення:
Info
General
Unique ID : 88345004904530195716881493898345938609 (0x4276A108A6E18581F8293EE60C257EB1)
Complete name : F:\Support\series\Grimm (Season 1) [, 720p, Ukr, Eng]\Grimm. s01e01. Pilot.
Format :
Format version : Version 4
File size : 1.92 GiB
Duration : 43 min 15 s
Overall bit rate : 6 365 kb/s
Encoded date : UTC 2020-04-27 21:06:19
Writing application : v45.0.0 ('Heaven in Pennies') 64-bit
Writing library : libebml v1.3.10 + v1.5.2

Video
ID : 1
Format : AVC
Format/Info : Advanced Video Codec
Format profile : [email protected]
Format settings : CABAC / 5 Ref Frames
Format settings, CABAC : Yes
Format settings, Reference : 5 frames
Codec ID : V_MPEG4/ISO/AVC
Duration : 43 min 15 s
Bit rate : 5 723 kb/s
Width : 1 280 pixels
Height : 720 pixels
Display aspect ratio : 16:9
Frame rate mode : Constant
Frame rate : 23.976 (24000/1001) FPS
Color space : YUV
Chroma subsampling : 4:2:0
Bit depth : 8 bits
Scan type : Progressive
Bits/(Pixel*Frame) : 0.259
Stream size : 1.73 GiB (90%)
Writing library : core 125 r2208 d9d2288
Encoding settings : cabac=1 / ref=5 / deblock=1:0:0 / analyse=0x3:0x133 / me=umh / subme=7 / psy=1 / psy_rd=1.00:0.00 / mixed_ref=1 / me_range=16 / chroma_me=1 / trellis=1 / 8x8dct=1 / cqm=0 / deadzone=21,11 / fast_pskip=0 / chroma_qp_offset=-2 / threads=12 / lookahead_threads=2 / sliced_threads=0 / nr=0 / decimate=1 / interlaced=0 / bluray_compat=0 / constrained_intra=0 / bframes=3 / b_pyramid=2 / b_adapt=1 / b_bias=0 / direct=1 / weightb=1 / open_gop=0 / weightp=2 / keyint=250 / keyint_min=23 / scenecut=40 / intra_refresh=0 / rc_lookahead=40 / rc=2pass / mbtree=1 / bitrate=5723 / ratetol=1.0 / qcomp=0.60 / qpmin=0 / qpmax=69 / qpstep=4 / cplxblur=20.0 / qblur=0.5 / ip_ratio=1.40 / aq=1:1.00
Language : English
Default : Yes
Forced : No

Audio #1
ID : 2
Format : AC-3
Format/Info : Audio Coding 3
Commercial name : Dolby Digital
Codec ID : A_AC3
Duration : 43 min 15 s
Bit rate mode : Constant
Bit rate : 192 kb/s
Channel(s) : 2 channels
Channel layout : L R
Sampling rate : 48.0 kHz
Frame rate : 31.250 FPS (1536 SPF)
Compression mode : Lossy
Stream size : 59.4 MiB (3%)
Title : Україна
Language : Ukrainian
Service kind : Complete Main
Default : Yes
Forced : No

Audio #2
ID : 3
Format : AC-3
Format/Info : Audio Coding 3
Commercial name : Dolby Digital
Codec ID : A_AC3
Duration : 43 min 15 s
Bit rate mode : Constant
Bit rate : 448 kb/s
Channel(s) : 6 channels
Channel layout : L R C LFE Ls Rs
Sampling rate : 48.0 kHz
Frame rate : 31.250 FPS (1536 SPF)
Compression mode : Lossy
Stream size : 139 MiB (7%)
Language : English
Service kind : Complete Main
Default : No
Forced : No
Скріншоти

Дякую SgBILko, woxeloid, Sando7 за підготовку української доріжки, bober-mober за український постер.

Джерело: &
Особиста оцінка: 0 - не дивився





Бронзовий реліз (на рейтинг впливає 75% завантаженого)
 Трекер:    Зареєстрований   

Завантажити / скачати серіал українською



відео для новачків



 Зареєстрований:   2020-04-28 14:33
 Розмір:   42.31 GB 
 Оцінка серіалу:   9.9/10 (Голосів: 8)
   
Dr.S 
Поважний учасник


З нами з: 30.05.17
Востаннє: 30.11.20
Повідомлень: 151

2020-06-16 20:43  
А по новому каналу з цією озвучкою показують?
Anonymous 







2020-06-16 20:45  
Dr.S написано:
А по новому каналу з цією озвучкою показують?

Так.

Dr.S 
Поважний учасник


З нами з: 30.05.17
Востаннє: 30.11.20
Повідомлень: 151

2020-06-16 20:48  
сезони 3-5 будуть?
Anonymous 







2020-06-16 20:53  
Dr.S написано:
сезони 3-5 будуть?

Пів третього сезону вже є на трекері, користуйтеся пошуком.

Dr.S 
Поважний учасник


З нами з: 30.05.17
Востаннє: 30.11.20
Повідомлень: 151

2020-06-16 21:22  
я бачив, але він не в такій якості
дякую, почекаю

Ваш часовий пояс: GMT + 2 Години

Нова тема   Відповісти