Квартира / L'appartement (1996) -AVC Ukr/Fre

Нові коментарі

Нова тема   Відповісти
Автор Повідомлення
Arsenfpu 
Відео Гуртом - фільмокрай
Відео Гуртом - фільмокрай


З нами з: 30.04.09
Востаннє: 02.07.20
Повідомлень: 7028

2020-04-28 11:20  
Квартира / L'appartement (1996) -AVC Ukr/Fre

Квартира / L'appartement (1996) -AVC Ukr/Fre


Жанр: драма, романтичний
Країна: Франція, Іспанія, Італія



Кінокомпанія: Cecchi Gori Group Tiger Cinematografica, IMA Productions, La Sept Cinéma
Режисер: Жіль Мімуні
Актори: Венсан Кассель, Моніка Белуччі, Жан-Філіп Екоффе, Роман Рішар Боренже, Сандрін Кіберлен, Олів'є Граньє

Сюжет:
Макс - молодий успішний бізнесмен, який збирається незабаром одружитися на сестрі свого начальника. Раптом на вулиці він чує голос жінки, з якою у нього був роман два роки тому - тоді вона кинула його без пояснень. Макс починає стежити за нею, щоб дізнатися, що ж сталося. І тут виявляється, що це зовсім інша жінка, яка, однак, весь час стежила за Максом і таємно в нього закохана ...


Тривалість: 01:51:53
Якість:
Відео:
кодек:
розмір кадру: [email protected]
бітрейт: 2 023 кб/с

Аудіо # 1:
мова: українська
переклад: багатоголосий закадровий
кодек: 2.0
бітрейт: 192 кб/с

Аудіо # 2:
мова: французька
переклад: оригінал
кодек: 2.0
бітрейт: 192 кб/с
Скріншоти














Про файл
General
Unique ID : 14258645387110207487515114738881228590 (0xABA1D7E844E394DFC5EED37CE316F2E)
Complete name : C:\L'appartement (1996) [Ukr,Fre] -AVC [Hurtom].
Format :
Format version : Version 4 / Version 2
File size : 1.88 GiB
Duration : 1 h 51 min
Overall bit rate : 2 408 kb/s
Movie name : Квартира / L'appartement (1996)
Encoded date : UTC 2020-05-03 09:32:51
Writing application : v21.0.0 ('Tardigrades Will Inherit The Earth') 32-bit
Writing library : libebml v1.3.5 + v1.4.8
Cover : Yes
Attachments : cover.jpg

Video
ID : 1
Format : AVC
Format/Info : Advanced Video Codec
Format profile : [email protected]
Format settings, CABAC : Yes
Format settings, ReFrames : 12 frames
Codec ID : V_MPEG4/ISO/AVC
Duration : 1 h 51 min
Bit rate : 2 023 kb/s
Width : 660 pixels
Height : 576 pixels
Display aspect ratio : 16:10
Original display aspect rat : 16:10
Frame rate mode : Constant
Frame rate : 25.000 FPS
Color space : YUV
Chroma subsampling : 4:2:0
Bit depth : 8 bits
Scan type : Progressive
Bits/(Pixel*Frame) : 0.213
Stream size : 1.58 GiB (84%)
Writing library : core 142 r2453kMod ea0ca51
Encoding settings : cabac=1 / ref=12 / deblock=1:-2:-1 / analyse=0x3:0x133 / me=umh / subme=11 / psy=1 / fade_compensate=0.00 / psy_rd=1.10:0.03 / mixed_ref=1 / me_range=32 / chroma_me=1 / trellis=2 / 8x8dct=1 / cqm=0 / deadzone=21,11 / fast_pskip=0 / chroma_qp_offset=-3 / threads=3 / lookahead_threads=1 / sliced_threads=0 / nr=0 / decimate=1 / interlaced=0 / bluray_compat=0 / constrained_intra=0 / fgo=0 / bframes=10 / b_pyramid=2 / b_adapt=2 / b_bias=0 / direct=1 / weightb=1 / open_gop=0 / weightp=2 / keyint=250 / keyint_min=25 / scenecut=40 / intra_refresh=0 / rc_lookahead=40 / rc=crf / mbtree=0 / crf=18.0000 / qcomp=0.60 / qpmin=0 / qpmax=69 / qpstep=4 / vbv_maxrate=20000 / vbv_bufsize=20000 / crf_max=0.0 / nal_hrd=none / filler=0 / ip_ratio=1.30 / pb_ratio=1.20 / aq=2:0.80 / zones=163460,167705,q=30
Language : French
Default : Yes
Forced : No
Color range : Limited
Matrix coefficients : BT.601

Audio #1
ID : 2
Format : AC-3
Format/Info : Audio Coding 3
Mode extension : CM (complete main)
Format settings, Endianness : Big
Codec ID : A_AC3
Duration : 1 h 51 min
Bit rate mode : Constant
Bit rate : 192 kb/s
Channel(s) : 2 channels
Channel positions : Front: L R
Sampling rate : 48.0 kHz
Frame rate : 31.250 FPS (1536 spf)
Compression mode : Lossy
Stream size : 154 MiB (8%)
Language : Ukrainian
Default : Yes
Forced : Yes

Audio #2
ID : 3
Format : AC-3
Format/Info : Audio Coding 3
Mode extension : CM (complete main)
Format settings, Endianness : Big
Codec ID : A_AC3
Duration : 1 h 51 min
Bit rate mode : Constant
Bit rate : 192 kb/s
Channel(s) : 2 channels
Channel positions : Front: L R
Sampling rate : 48.0 kHz
Frame rate : 31.250 FPS (1536 spf)
Compression mode : Lossy
Stream size : 154 MiB (8%)
Language : French
Default : No
Forced : No
Джерело:
Особиста оцінка: не дивився


Срібний реліз (на рейтинг впливає 50% завантаженого)
 Трекер:    Зареєстрований   

Завантажити / скачати фільм українською



відео для новачків



 Зареєстрований:   2020-05-03 13:18
 Розмір:   1.88 GB 
 Оцінка фільму:   9.6/10 (Голосів: 9)
   
=KateRyna= 
Новенький


З нами з: 26.08.14
Востаннє: 29.06.20
Повідомлень: 24

2020-04-30 12:33  
Виправте назву, будь ласка :)
don pedro 
Попереджень: 1
Попереджень: 1 


З нами з: 29.06.11
Востаннє: 02.07.20
Повідомлень: 17116

2020-04-30 12:53  
О! Молода Моніка Белуччі!
bot 
робот


З нами з: 30.09.07
Востаннє: 26.05.05
Повідомлень: 24915

2020-05-03 13:18  
Тему перенесено з Анонси релізів до форуму Фільми


Arsenfpu

Ваш часовий пояс: GMT + 2 Години

Нова тема   Відповісти