Маска Зорро / The Mask of Zorro (1998) 1080p 3xUkr/Eng | Sub Eng

Нові коментарі

Нова тема   Відповісти
Автор Повідомлення
PatataFrita 
Свій


З нами з: 05.04.20
Востаннє: 08.09.20
Повідомлень: 83

2020-04-27 14:14  
Маска Зорро / The Mask of Zorro (1998) 1080p 3xUkr/Eng | Sub Eng

Маска Зорро / The Mask of Zorro (1998) 1080p 3xUkr/Eng | Sub Eng


Жанр: екшн, пригодницький, мелодрама, вестерн
Країна: США, Німеччина



Кінокомпанія: TriStar Pictures, Amblin Entertainment, David Foster Productions
Режисер: Мартін Кемпбелл (Martin Campbell)
Актори: Ентоні Гопкінс (Anthony Hopkins), Антоніо Бандерас (Antonio Banderas), Кетрін Зета-Джонс (Catherine Zeta-Jones), Стюарт Вілсон (Stuart Wilson), Метт Летшер (Matt Letscher), Морі Чайкін (Maury Chaykin)

Сюжет:
Це дивовижна історія кохання та подвигу, розвертається в ритмі жагучого латиноамериканського танго. Старіючий герой, що віддав всі сили на боротьбу за справедливість, та провівши десятиліття в темниці, втративши дружину і дочку, передає свої знання, навики та чорну маску молодому відчайдушному бійцю, який віднині і буде боротися з тими, хто творить зло.


Тривалість: 02:17:38
Якість:
Відео:
кодек:
розмір кадру: 1920x800
бітрейт: 10700 кб/с

Аудіо # 1:
мова: українська
переклад: багатоголосий закадровий
кодек: 5.1
бітрейт: 448 кб/с

Аудіо # 2:
мова: українська
переклад: багатоголосий закадровий
кодек: 5.1
бітрейт: 448 кб/с

Аудіо # 3:
мова: українська
переклад: двоголосий закадровий
кодек: 5.1
бітрейт: 448 кб/с

Аудіо # 4:
мова: англійська
переклад: оригінал
кодек: 5.1
бітрейт: 640 кб/с

Субтитри # 1:
мова: українська (окремо)
тип: програмні (м'які)
формат: *.srt
Завантажити

Субтитри # 2:
мова: англійська
тип: програмні (м'які)
формат: *.srt
Info
General
Unique ID : 199074760237817986247985818632698852828 (0x95C4677915F566314217E8C855B5F5DC)
Complete name : D:\The Mask of Zorro (1998) [3xUkr Eng] [Sub Eng] 1080p [Hurtom].
Format :
Format version : Version 4
File size : 12.2 GiB
Duration : 2 h 17 min
Overall bit rate : 12.7 Mb/s
Movie name : The Mask of Zorro (1998) [3xUkr Eng] [Sub Eng] 1080p [Hurtom]
Encoded date : UTC 2020-04-27 10:40:00
Writing application : v45.0.0 ('Heaven in Pennies') 32-bit
Writing library : libebml v1.3.10 + v1.5.2

Video
ID : 1
Format : AVC
Format/Info : Advanced Video Codec
Format profile : [email protected]
Format settings : CABAC / 5 Ref Frames
Format settings, CABAC : Yes
Format settings, Reference : 5 frames
Codec ID : V_MPEG4/ISO/AVC
Duration : 2 h 17 min
Bit rate : 10.7 Mb/s
Width : 1 920 pixels
Height : 800 pixels
Display aspect ratio : 2.40:1
Frame rate mode : Constant
Frame rate : 23.976 (24000/1001) FPS
Color space : YUV
Chroma subsampling : 4:2:0
Bit depth : 8 bits
Scan type : Progressive
Bits/(Pixel*Frame) : 0.292
Stream size : 10.3 GiB (84%)
Title : Release by Alex260680
Writing library : core 148 r2597 e86f3a1
Encoding settings : cabac=1 / ref=5 / deblock=1:-3:-3 / analyse=0x3:0x133 / me=umh / subme=11 / psy=1 / psy_rd=1.10:0.00 / mixed_ref=1 / me_range=32 / chroma_me=1 / trellis=2 / 8x8dct=1 / cqm=0 / deadzone=21,11 / fast_pskip=0 / chroma_qp_offset=-2 / threads=6 / lookahead_threads=1 / sliced_threads=0 / nr=0 / decimate=0 / interlaced=0 / bluray_compat=0 / constrained_intra=0 / bframes=9 / b_pyramid=2 / b_adapt=2 / b_bias=0 / direct=3 / weightb=1 / open_gop=0 / weightp=2 / keyint=240 / keyint_min=23 / scenecut=40 / intra_refresh=0 / rc=2pass / mbtree=0 / bitrate=10738 / ratetol=1.0 / qcomp=0.60 / qpmin=0 / qpmax=69 / qpstep=4 / cplxblur=20.0 / qblur=0.5 / ip_ratio=1.40 / pb_ratio=1.30 / aq=1:0.70
Language : English
Default : Yes
Forced : No

Audio #1
ID : 2
Format : AC-3
Format/Info : Audio Coding 3
Commercial name : Dolby Digital
Codec ID : A_AC3
Duration : 2 h 17 min
Bit rate mode : Constant
Bit rate : 448 kb/s
Channel(s) : 6 channels
Channel layout : L R C LFE Ls Rs
Sampling rate : 48.0 kHz
Frame rate : 31.250 FPS (1536 SPF)
Compression mode : Lossy
Stream size : 441 MiB (4%)
Title : ICTV (MVO)
Language : Ukrainian
Service kind : Complete Main
Default : Yes
Forced : No

Audio #2
ID : 3
Format : AC-3
Format/Info : Audio Coding 3
Commercial name : Dolby Digital
Codec ID : A_AC3
Duration : 2 h 17 min
Bit rate mode : Constant
Bit rate : 448 kb/s
Channel(s) : 6 channels
Channel layout : L R C LFE Ls Rs
Sampling rate : 48.0 kHz
Frame rate : 31.250 FPS (1536 SPF)
Compression mode : Lossy
Stream size : 441 MiB (4%)
Title : Studia Mova - TRK Ukraina (MVO)
Language : Ukrainian
Service kind : Complete Main
Default : No
Forced : No

Audio #3
ID : 4
Format : AC-3
Format/Info : Audio Coding 3
Commercial name : Dolby Digital
Codec ID : A_AC3
Duration : 2 h 17 min
Bit rate mode : Constant
Bit rate : 448 kb/s
Channel(s) : 6 channels
Channel layout : L R C LFE Ls Rs
Sampling rate : 48.0 kHz
Frame rate : 31.250 FPS (1536 SPF)
Compression mode : Lossy
Stream size : 441 MiB (4%)
Title : 1+1 (DVO)
Language : Ukrainian
Service kind : Complete Main
Default : No
Forced : No

Audio #4
ID : 5
Format : AC-3
Format/Info : Audio Coding 3
Commercial name : Dolby Digital
Codec ID : A_AC3
Duration : 2 h 17 min
Bit rate mode : Constant
Bit rate : 640 kb/s
Channel(s) : 6 channels
Channel layout : L R C LFE Ls Rs
Sampling rate : 48.0 kHz
Frame rate : 31.250 FPS (1536 SPF)
Compression mode : Lossy
Stream size : 630 MiB (5%)
Title : Original
Language : English
Service kind : Complete Main
Default : No
Forced : No

Text
ID : 6
Format : UTF-8
Codec ID : S_TEXT/UTF8
Codec ID/Info : UTF-8 Plain Text
Duration : 2 h 8 min
Bit rate : 33 b/s
Count of elements : 834
Stream size : 31.2 KiB (0%)
Title : Full
Language : English
Default : No
Forced : No

Menu
00:00:00.000 : en:Chapter 01
00:09:54.511 : en:Chapter 02
00:14:04.927 : en:Chapter 03
00:27:01.328 : en:Chapter 04
00:32:54.973 : en:Chapter 05
00:37:09.477 : en:Chapter 06
00:42:50.276 : en:Chapter 07
00:51:59.408 : en:Chapter 08
01:02:14.105 : en:Chapter 09
01:09:07.018 : en:Chapter 10
01:15:41.996 : en:Chapter 11
01:31:10.840 : en:Chapter 12
01:41:01.222 : en:Chapter 13
01:46:27.172 : en:Chapter 14
01:52:13.226 : en:Chapter 15
02:04:21.162 : en:Chapter 16
Скріншоти
Подяка панам xSlim, drakon87, karvai0 та robotron005 за запис звуку, пану _oles за синхронізацію і пану hellforces за постери
Подяка пану leicheman за надані субтитри

Джерело: &
Особиста оцінка: 8 - мені сподобалося


Срібний реліз (на рейтинг впливає 50% завантаженого)
 Трекер:    Зареєстрований   

Завантажити / скачати фільм українською



відео для новачків



 Зареєстрований:   2020-04-27 14:14
 Розмір:   12.23 GB 
 Оцінка фільму:   9.3/10 (Голосів: 7)
   
leicheman 
Відео Гуртом - фільмокрай
Відео Гуртом - фільмокрай


З нами з: 03.07.14
Востаннє: 20.09.20
Повідомлень: 5410

2020-04-27 14:35  
Є укр. субтитри з нетфліксу, може додасте поки, ще ніхто не завантажив?
omm 
Відео Гуртом - фільмокрай
Відео Гуртом - фільмокрай


З нами з: 12.06.12
Востаннє: 20.09.20
Повідомлень: 2422

2020-04-27 14:53  
По СТБ на днях яка озвучка була?
PatataFrita 
Свій


З нами з: 05.04.20
Востаннє: 08.09.20
Повідомлень: 83

2020-04-27 14:55  
leicheman
Відповів в ПП.

sanyokfuriv 
Свій


З нами з: 05.07.11
Востаннє: 20.09.20
Повідомлень: 68

2020-04-27 20:38  
Привіт! Добавте трохи на заввантаження бо вище 800 кб/с не піднімається (((
Ваш часовий пояс: GMT + 2 Години

Нова тема   Відповісти