[ЗБІР КОШТІВ] Меморист (Сезон 1, серії 1) / Memorist (Season 1, edisodes 1) / 메모리스트 (2020) WEB-Rip 720p

Нові коментарі

Нова тема   Відповісти
Останній раз роздавалося shum07 (2020-09-23)
Автор Повідомлення
UFDUB_TR 
Свій


З нами з: 08.02.20
Востаннє: 20.09.20
Повідомлень: 54

2020-04-27 02:14  
[ЗБІР КОШТІВ]Меморист (Сезон 1, серії 1) / Memorist (Season 1, edisodes 1) / 메모리스트 (2020) WEB-Rip 720p




Країна:Південа Корея
Рік виходу: 2020
Жанри: Триллер, Детектив, Надприроднє
Кількість серій: 16 (~60 хв)
Режисер: Kim Whee, So Jae-Hyun
Студія:tvN



Опис:
«Меморист» - це таємничий трилер, який розповідає про детектива з надприродними силами Тон Пека (грає Ю Син Хо) та про геніального профайлера Хан Сун Мі (грає Лі Се Йон) які об'єднують зусилля для пошуку таємничого серійного вбивці. Тон Пек має надзвичайну здатність зчитувати спогади людей, що дозволяє йому ефективно боротися зі злом



Якість:
Відео:
кодек:
розмір кадру: 1280 х 720
бітрейт: 2 841 кб/с

Аудіо:
мова: українська
переклад: Багатоголосий закадровий
кодек: 2.0
бітрейт: 128 кб/с


Переклад та озвучення виконано:
Переклад: BambooUA
Ролі озвучили: VOLCUA , Irennneri, Stepalex, Hoshi, Ninja, Daenzor, Rainy984, Smile2you, DpaHbaLT, Maxx_light, Eredelka, Dark_Moon, Sobad, Marionetka (Bambooua)
Робота зі звуком:VOLCUA
Студія: UFDUB.com
Постер: Hoshi

Тех. деталі ^_^

General
Complete name : D:\UFDUB\UFDUB_TORRENT\2162\[UFDUB_com] Меморист - Memorist 메모리스트\[UFDUB_com] Меморист - Memorist 메모리스트 - Серія 1.mp4
Format : MPEG-4
Format profile : Base Media
Codec ID : isom (isom/iso2/avc1/mp41)
File size : 1.24 GiB
Duration : 59 min 51 s
Overall bit rate : 2 976 kb/s
Writing application : Lavf58.39.101

Video
ID : 1
Format : AVC
Format/Info : Advanced Video Codec
Format profile : [email protected]
Format settings : CABAC / 3 Ref Frames
Format settings, CABAC : Yes
Format settings, Reference : 3 frames
Codec ID : avc1
Codec ID/Info : Advanced Video Coding
Duration : 59 min 49 s
Bit rate : 2 841 kb/s
Width : 1 280 pixels
Height : 720 pixels
Display aspect ratio : 16:9
Frame rate mode : Constant
Frame rate : 29.970 (30000/1001) FPS
Color space : YUV
Chroma subsampling : 4:2:0
Bit depth : 8 bits
Scan type : Progressive
Bits/(Pixel*Frame) : 0.103
Stream size : 1.19 GiB (95%)
Codec configuration box : avcC

Audio
ID : 2
Format : LC
Format/Info : Advanced Audio Codec Low Complexity
Codec ID : mp4a-40-2
Duration : 59 min 51 s
Bit rate mode : Constant
Bit rate : 128 kb/s
Channel(s) : 2 channels
Channel layout : L R
Sampling rate : 44.1 kHz
Frame rate : 43.066 FPS (1024 SPF)
Compression mode : Lossy
Stream size : 54.9 MiB (4%)
Default : Yes
Alternate group : 1
Список серій

Серія 1 - Знайомство
Серія 2 - Поверх випробувань
Серія 3 - Двері до правильної відповіді
Серія 4 - Битва за корону

Серія 5 -
Серія 6 -
Серія 7 -
Серія 8 -
Серія 9 -
Серія 10 -
Серія 11 -


Скріншоти

Трейлер Українською


🎤🎭🎬Увага!!! Триває збір коштів!!!🎬🎭🎤


Підтримати озвучення другої серії, можна
>>ТУТ<<


❤️❤️❤️Окрема подяка спонсорам❤️❤️❤️
Список мецинатів

200 ГРН REPAKR
100 ГРН ШНАЙЗЕЛЬ
100 ГРН MARIANA ZABOLOTNA
100 ГРН ДОБРОЇ НОЧІ
44 ГРН NAHARD
Завантажили? - Роздавай! Просимо, не йдіть з роздачі!




Авторський реліз (завантажувати можна без реєстрації)
 Трекер:    Зареєстрований   

Завантажити / скачати серіал українською



відео для новачків



 Зареєстрований:   2020-04-27 02:27
 Розмір:   1.24 GB 
 Оцінка серіалу:   8.2/10 (Голосів: 5)
   
11FrYkT 
Модератор відео


З нами з: 20.02.11
Востаннє: 24.09.20
Повідомлень: 7004

2020-04-27 14:11  
UFDUB_TR написано:
Меморист / Memorist / 메모리스트 [1/16] (2020) 720p

в заголовку вказати сезон, кількість серії з скількох, додайте посилання імдб

також судячи з скрінів це максимум Вебріп

taksist 
VIP


З нами з: 10.12.12
Востаннє: 24.09.20
Повідомлень: 413

2020-04-28 04:02  
трохи по корейськи дебільнувате але дивитися можна.
UFDUB_TR 
Свій


З нами з: 08.02.20
Востаннє: 20.09.20
Повідомлень: 54

2020-04-28 16:31  
Ще раз.Велике дякую спонсорам))
Ось тизер до 2 серії Wink (1)

Ваш часовий пояс: GMT + 2 Години

Нова тема   Відповісти