Малюк Джо / Little Joe (2019) 720p Ukr/Eng | Sub Ukr

Нові коментарі

Нова тема   Відповісти
Автор Повідомлення
Anonymous 







2020-04-26 22:32  
Малюк Джо / Little Joe (2019) 720p Ukr/Eng | Sub Ukr

Малюк Джо / Little Joe (2019) 720p Ukr/Eng | Sub Ukr
Оригінальний постер


Жанр: драма, жахи, містика
Країна: Великобританія, Австрія, Німеччина



Кінокомпанія: Coop99 Filmproduktion, The Bureau, Essential Filmproduktion GmbH
Режисер: Джессіка Гауснер
Актори: Емілі Бічем, Бен Вішоу, Ліенн Бест

Сюжет:
Мати-одиначка Еліс працює старшим агрономом у корпорації з виведення нових видів. Вона створила незвичайну малинову квітку, визначну не тільки своєю красою, але і цілющими властивостями: якщо її тримати при ідеальній температурі, правильно підживлювати і регулярно розмовляти з нею, ця рослина робить свого власника щасливим. Всупереч політиці компанії, Еліс забирає одну з рослин додому як подарунок для власного сина, підлітка Джо. Вони називають її «малюк Джо», але разом із квіткою починають рости і підозри Еліс: це творіння може бути не такими невинним, як його ім’я.


Тривалість: 01:45:09
Якість:
Відео:
кодек:
розмір кадру: 1280 х 720
бітрейт: 3000 кб/с

Аудіо # 1:
мова: українська
переклад: багатоголосий закадровий
кодек: 2.0
бітрейт: 128 кб/с

Аудіо # 2:
мова: англійська
переклад: оригінал
кодек: 2.0
бітрейт: 128 кб/с

Джерело озвучення:
Arthouse Traffic

Субтитри:
мова: українська
тип: програмні (м'які)
формат: *.srt
Info
Код:
General
Unique ID                                : 1278926623816775340935436427013019654 (0xF64FF36D4322C510C96A01F5425806)
Complete name                            : Little Joe (2019) 720p [Ukr_Eng] [Hurtom].
Format                                   :
Format version                           : Version 4
File size                                : 2.32 GiB
Duration                                 : 1 h 45 min
Overall bit rate                         : 3 162 kb/s
Movie name                               : Малюк Джо (2019)
Encoded date                             : UTC 2020-04-26 18:48:07
Writing application                      : v30.1.0 ('Forever And More') 64-bit
Writing library                          : libebml v1.3.6 + v1.4.9
Cover                                    : Yes
Attachments                              : cover.jpg

Video
ID                                       : 1
Format                                   : AVC
Format/Info                              : Advanced Video Codec
Format profile                           : [email protected]
Format settings                          : CABAC / 4 Ref Frames
Format settings, CABAC                   : Yes
Format settings, ReFrames                : 4 frames
Codec ID                                 : V_MPEG4/ISO/AVC
Duration                                 : 1 h 45 min
Bit rate                                 : 3 000 kb/s
Width                                    : 1 280 pixels
Height                                   : 720 pixels
Display aspect ratio                     : 16:9
Frame rate mode                          : Constant
Frame rate                               : 24.000 FPS
Color space                              : YUV
Chroma subsampling                       : 4:2:0
Bit depth                                : 8 bits
Scan type                                : Progressive
Bits/(Pixel*Frame)                       : 0.136
Stream size                              : 2.13 GiB (92%)
Writing library                          : core 158 r2984 3759fcb
Encoding settings                        : cabac=1 / ref=1 / deblock=1:0:0 / analyse=0x3:0x132 / me=hex / subme=6 / psy=1 / psy_rd=1.00:0.00 / mixed_ref=0 / me_range=16 / chroma_me=1 / trellis=1 / 8x8dct=1 / cqm=0 / deadzone=21,11 / fast_pskip=1 / chroma_qp_offset=-2 / threads=6 / lookahead_threads=1 / sliced_threads=0 / nr=0 / decimate=1 / interlaced=0 / bluray_compat=0 / constrained_intra=0 / bframes=3 / b_pyramid=2 / b_adapt=1 / b_bias=0 / direct=1 / weightb=1 / open_gop=0 / weightp=1 / keyint=240 / keyint_min=24 / scenecut=40 / intra_refresh=0 / rc_lookahead=30 / rc=abr / mbtree=1 / bitrate=3000 / ratetol=1.0 / qcomp=0.60 / qpmin=3 / qpmax=51 / qpstep=4 / vbv_maxrate=6000 / vbv_bufsize=6000 / nal_hrd=none / filler=0 / ip_ratio=1.40 / aq=1:1.00
Language                                 : English
Default                                  : Yes
Forced                                   : No

Audio #1
ID                                       : 2
Format                                   : LC
Format/Info                              : Advanced Audio Codec Low Complexity
Codec ID                                 : A_AAC-2
Duration                                 : 1 h 45 min
Bit rate                                 : 128 kb/s
Channel(s)                               : 2 channels
Channel layout                           : L R
Sampling rate                            : 48.0 kHz
Frame rate                               : 46.875 FPS (1024 SPF)
Compression mode                         : Lossy
Delay relative to video                  : -21 ms
Stream size                              : 96.1 MiB (4%)
Language                                 : Ukrainian
Default                                  : Yes
Forced                                   : No

Audio #2
ID                                       : 3
Format                                   : LC
Format/Info                              : Advanced Audio Codec Low Complexity
Codec ID                                 : A_AAC-2
Duration                                 : 1 h 45 min
Bit rate                                 : 128 kb/s
Channel(s)                               : 2 channels
Channel layout                           : L R
Sampling rate                            : 48.0 kHz
Frame rate                               : 46.875 FPS (1024 SPF)
Compression mode                         : Lossy
Delay relative to video                  : -21 ms
Stream size                              : 96.1 MiB (4%)
Language                                 : English
Default                                  : No
Forced                                   : No

Text
ID                                       : 4
Format                                   : UTF-8
Codec ID                                 : S_TEXT/UTF8
Codec ID/Info                            : UTF-8 Plain Text
Duration                                 : 1 h 38 min
Bit rate                                 : 66 b/s
Count of elements                        : 1029
Stream size                              : 47.5 KiB (0%)
Language                                 : Ukrainian
Default                                  : Yes
Forced                                   : No

Скріншоти





Джерело: і eurofest.org.ua


 Трекер:    Зареєстрований   

Завантажити / скачати фільм українською



відео для новачків



 Зареєстрований:   2020-04-26 22:32
 Розмір:   2.32 GB 
 Оцінка фільму:   9/10 (Голосів: 6)
   
Інші релізи
   Малюк Джо / Little Joe (2019) 1080p Ukr/Eng | Sub Ukr/Eng Mr.Rokie  12 / 0   6.2 GB   2020-04-21 14:47 
Ваш часовий пояс: GMT + 2 Години

Нова тема   Відповісти