Смерть негідника / Mort d'un pourri (1977) Remux 1080p Ukr/Fre | Sub Fre/Eng

Нові коментарі

Нова тема   Відповісти
Автор Повідомлення
MakRA 
VIP


З нами з: 11.11.18
Востаннє: 29.09.20
Повідомлень: 1120

2020-04-26 18:40  
Смерть негідника / Mort d'un pourri (1977) Remux 1080p Ukr/Fre | Sub Fre/Eng


Альтернативна обкладинка з німецького блюрея:

Жанр: кримінальний, драма, трилер
Країна: Франція



Кінокомпанія: Adel Productions
Режисер: Жорж Лотнер [Georges Lautner]
Актори: Ален Делон [Alain Delon], Орнелла Муті [Ornella Muti], Стефан Одран [Stéphane Audran], Мірей Дарк [Mireille Darc], Моріс Роне []Maurice Ronet, Мішель Омон [Michel Aumont], Жан Буіз [Jean Bouise], Даніель Секкальді [Daniel Ceccaldi], Жульєн Гійомар [Julien Guiomar], Клаус Кінскі [Klaus Kinski], Франсуа Шометт [François Chaumette], Ксав'є Депра [Xavier Depraz]

Сюжет:
Ксав'є Марешаль цілком несподівано виявляється втягнутим в брудні політичні ігри. Його давній друг, депутат Національної асамблеї Франції Філіпп Дюбай, передає Ксав'є щоденник з компроматом на всіх багатих ділових людей країни...

Кінострічка «Смерть негідника» була другою екранізацією, після фільму 1968 року «Паша», режисера Жоржа Лотнера романів «Смерть негідника» (1973) та «Великий палець!» (1967) французького журналіста і романіста, відомого також під псевдоніми Жан Дельйон і Раф Валлет, — Жана Лаборда

Музичний супровід фільму був створений Філіпом Сардом з участю американського джазового саксофоніста українського походження Стена Гетца та Лондонського симфонічного оркестру і випущений у 1977 році окремим альбомом. На початку фільму появляється силует саксофоніста, який виконує композицію «Париж. П'ята година ранку»


Тривалість: 02:03:34
Якість: Remux 1080p [Remastered, FRA Transfer]
Відео:
кодек:
розмір кадру: 1920 х 1080
бітрейт: 35,9 Mб/с

Аудіо # 1:
мова: українська
переклад: двоголосий закадровий
кодек: 2.0
бітрейт: 192 кб/с

Аудіо # 2:
мова: французька
переклад: оригінал
кодек: -HD MA 2.0
бітрейт: 929 кб/с

Аудіо # 3:
мова: французька
переклад: оригінал
кодек: 2.0
бітрейт: 192 кб/с

Аудіо # 4:
мова: французька
переклад: коментарі
кодек: -HD MA 2.0
бітрейт: 919 кб/с

Субтитри # 1: (Full)
мова: французька
тип: програмні (м'які)
формат: *.srt

Субтитри # 2: (Full)
мова: англійська
тип: програмні (м'які)
формат: *.srt

Збережено оригінальні розділи, як на Blu-ray.
Info
General
Unique ID : 46915332732469319358971023867026412769 (0x234B907D91BD14CBD86870C4CAC114E1)
Complete name : E:\+Фільмографії- Ален Делон [Alain Delon]\Mort d'un pourri (1977) Remux 1080p [Remastered] UkrFre Sub FreEng [Hurtom].
Format :
Format version : Version 4
File size : 33.0 GiB
Duration : 2 h 3 min
Overall bit rate mode : Variable
Overall bit rate : 38.2 Mb/s
Movie name : Смерть негідника / Mort d'un pourri (1977) Remux 1080p [Remastered, FRA Transfer] Ukr/Fre | Sub Fre/Eng [Hurtom]
Encoded date : UTC 2020-04-27 16:34:05
Writing application : v44.0.0 ('Domino') 64-bit
Writing library : libebml v1.3.10 + v1.5.2
Cover : Yes
Attachments : cover.jpg

Video
ID : 1
Format : AVC
Format/Info : Advanced Video Codec
Format profile : [email protected]
Format settings : CABAC / 2 Ref Frames
Format settings, CABAC : Yes
Format settings, Reference fra : 2 frames
Codec ID : V_MPEG4/ISO/AVC
Duration : 2 h 3 min
Bit rate mode : Variable
Bit rate : 35.9 Mb/s
Width : 1 920 pixels
Height : 1 080 pixels
Display aspect ratio : 16:9
Frame rate mode : Constant
Frame rate : 23.976 (24000/1001) FPS
Color space : YUV
Chroma subsampling : 4:2:0
Bit depth : 8 bits
Scan type : Progressive
Bits/(Pixel*Frame) : 0.723
Stream size : 31.0 GiB (94%)
Title : Mort d'un pourri (1977) Remux 1080p [Remastered, FRA Transfer] Ukr/Fre | Sub Fre/Eng [Hurtom]
Language : Ukrainian
Default : Yes
Forced : Yes

Audio #1
ID : 2
Format : AC-3
Format/Info : Audio Coding 3
Commercial name : Dolby Digital
Codec ID : A_AC3
Duration : 2 h 3 min
Bit rate mode : Constant
Bit rate : 192 kb/s
Channel(s) : 2 channels
Channel layout : L R
Sampling rate : 48.0 kHz
Frame rate : 31.250 FPS (1536 SPF)
Compression mode : Lossy
Stream size : 170 MiB (1%)
Title : DVO [ІНТЕР] [НТН] 2.0
Language : Ukrainian
Service kind : Complete Main
Default : Yes
Forced : Yes

Audio #2
ID : 3
Format : XLL
Format/Info : Digital Theater Systems
Commercial name : -HD Master Audio
Codec ID : A_DTS
Duration : 2 h 3 min
Bit rate mode : Variable
Bit rate : 929 kb/s
Channel(s) : 2 channels
Channel layout : L R
Sampling rate : 48.0 kHz
Frame rate : 93.750 FPS (512 SPF)
Bit depth : 16 bits
Compression mode : Lossless
Stream size : 821 MiB (2%)
Title : Original -HD MA 2.0
Language : French
Default : No
Forced : No

Audio #3
ID : 4
Format : AC-3
Format/Info : Audio Coding 3
Commercial name : Dolby Digital
Codec ID : A_AC3
Duration : 2 h 3 min
Bit rate mode : Constant
Bit rate : 192 kb/s
Channel(s) : 2 channels
Channel layout : L R
Sampling rate : 48.0 kHz
Frame rate : 31.250 FPS (1536 SPF)
Compression mode : Lossy
Stream size : 170 MiB (1%)
Title : Original 2.0
Language : French
Service kind : Complete Main
Default : No
Forced : No

Audio #4
ID : 5
Format : XLL
Format/Info : Digital Theater Systems
Commercial name : -HD Master Audio
Codec ID : A_DTS
Duration : 2 h 3 min
Bit rate mode : Variable
Bit rate : 919 kb/s
Channel(s) : 2 channels
Channel layout : L R
Sampling rate : 48.0 kHz
Frame rate : 93.750 FPS (512 SPF)
Bit depth : 16 bits
Compression mode : Lossless
Stream size : 811 MiB (2%)
Title : Original -HD MA 2.0 | Сomments
Language : French
Default : No
Forced : No

Text #1
ID : 6
Format : UTF-8
Codec ID : S_TEXT/UTF8
Codec ID/Info : UTF-8 Plain Text
Duration : 2 h 1 min
Bit rate : 54 b/s
Count of elements : 1712
Stream size : 49.1 KiB (0%)
Title : Fre (Full) SRT
Language : French
Default : No
Forced : No

Text #2
ID : 7
Format : UTF-8
Codec ID : S_TEXT/UTF8
Codec ID/Info : UTF-8 Plain Text
Duration : 2 h 2 min
Bit rate : 45 b/s
Count of elements : 1472
Stream size : 41.0 KiB (0%)
Title : Eng (Full) SRT
Language : English
Default : No
Forced : No

Menu
00:00:00.000 : en:Chapter 1
00:02:26.187 : en:Chapter 2
00:10:09.900 : en:Chapter 3
00:16:17.017 : en:Chapter 4
00:25:51.299 : en:Chapter 5
00:32:37.497 : en:Chapter 6
00:39:27.615 : en:Chapter 7
00:48:48.800 : en:Chapter 8
00:58:47.524 : en:Chapter 9
01:09:48.934 : en:Chapter 10
01:17:51.083 : en:Chapter 11
01:23:19.160 : en:Chapter 12
01:33:22.305 : en:Chapter 13
01:40:35.279 : en:Chapter 14
01:45:36.038 : en:Chapter 15
01:54:13.763 : en:Chapter 16
Скріншоти
Джерело: &
За запис з ТБ дякую п. xslim, синхронізація п. Arsenfpu
Особиста оцінка: 10 - без зайвих вагань рекомендую всім!



Золотий реліз (завантажене не впливає на рейтинг)
 Трекер:    Зареєстрований   

Завантажити / скачати фільм українською



відео для новачків



 Зареєстрований:   2020-04-27 23:48
 Розмір:   32.96 GB 
 Оцінка фільму:   10/10 (Голосів: 6)
   
Інші релізи
bot 
робот


З нами з: 30.09.07
Востаннє: 26.05.05
Повідомлень: 25654

2020-04-26 18:40  
Тему перенесено з Фільми в HD до форуму Анонси релізів


MakRA

bot 
робот


З нами з: 30.09.07
Востаннє: 26.05.05
Повідомлень: 25654

2020-04-27 23:48  
Тему перенесено з Анонси релізів до форуму Фільми в HD


MakRA

Ваш часовий пояс: GMT + 2 Години

Нова тема   Відповісти