Вбивство у Білому домі / Murder at 1600 (1997) 1080p Ukr/Eng | Sub Eng

Нові коментарі

Нова тема   Відповісти
Автор Повідомлення
Anonymous 







2020-04-26 17:25  
Вбивство у Білому домі / Murder at 1600 (1997) 1080p Ukr/Eng | Sub Eng

Вбивство у Білому домі / Murder at 1600 (1997) 1080p Ukr/Eng | Sub Eng


Жанр: трилер, кримінальний, драма
Країна: США



Кінокомпанія: Warner Bros
Режисер: Дуайт Х. Літтл
Актори: Веслі Снайпс, Даян Лейн, Деніел Бензалі, Денніс Міллер, Алан Алда, Ронні Кокс, Даян Бейкер

Сюжет:
Захоплення американських заручників в Північній Кореї викликало бурю обурення в Білому домі. Президент Америки близький до того, щоб ухвалити рішення втрутитися і атакувати Корею. Тим часом в самій будівлі Білого дому виявлена убита жінка, колишній секретар. Розслідування доручене поліцейському детективу Харлану Ріджісу, до цього не пов'язаному з урядовими і секретними службами. Саме з останніми він натикається на стіну глухого мовчання. Ріджіс відчуває себе маріонеткою у якійсь великій грі.


Тривалість: 01:46:42
Якість: 1080p
Відео:
кодек:
розмір кадру: 1920х1080
бітрейт: 8384 кб/с

Аудіо # 1:
мова: українська
переклад: двоголосий закадровий
кодек: 2.0
бітрейт: 192 кб/с
Примітка: є два місця без озвучення. На них в наявності укр. субтитри

Аудіо # 2:
мова: англійська
переклад: оригінал
кодек: 5.1
бітрейт: 640 кб/с

Субтитри:
мова: українська (лише до місць без перекладу)
тип: програмні (м'які)
формат: *.srt

Субтитри:
мова: англійська
тип: програмні (м'які)
формат: *.srt
Info
General
Unique ID : 214300071802777607537957205917913097436 (0xA138B14A19AB6527B2F453D73140A4DC)
Complete name : E:\Toloka\2020\Murder at 1600 (1997) 1080p.
Format :
Format version : Version 4
File size : 7.03 GiB
Duration : 1 h 46 min
Overall bit rate mode : Variable
Overall bit rate : 9 403 kb/s
Encoded date : UTC 2020-04-26 14:08:04
Writing application : v6.1.0 ('Old Devil') built on Mar 4 2013 09:10:42
Writing library : libebml v1.3.0 + v1.4.0

Video
ID : 1
Format : AVC
Format/Info : Advanced Video Codec
Format profile : [email protected]
Format settings : CABAC / 4 Ref Frames
Format settings, CABAC : Yes
Format settings, RefFrames : 4 frames
Codec ID : V_MPEG4/ISO/AVC
Duration : 1 h 46 min
Bit rate mode : Variable
Bit rate : 8 384 kb/s
Maximum bit rate : 15.0 Mb/s
Width : 1 920 pixels
Height : 1 080 pixels
Display aspect ratio : 16:9
Frame rate mode : Constant
Frame rate : 23.976 (24000/1001) FPS
Color space : YUV
Chroma subsampling : 4:2:0
Bit depth : 8 bits
Scan type : Progressive
Bits/(Pixel*Frame) : 0.169
Stream size : 6.27 GiB (89%)
Writing library : core 148 r2623 d5b2374
Encoding settings : cabac=1 / ref=4 / deblock=1:-1:-1 / analyse=0x3:0x133 / me=umh / subme=9 / psy=1 / psy_rd=1.00:0.15 / mixed_ref=1 / me_range=24 / chroma_me=1 / trellis=2 / 8x8dct=1 / cqm=0 / deadzone=21,11 / fast_pskip=1 / chroma_qp_offset=-3 / threads=34 / lookahead_threads=5 / sliced_threads=0 / nr=150 / decimate=1 / interlaced=0 / bluray_compat=0 / constrained_intra=0 / bframes=8 / b_pyramid=2 / b_adapt=2 / b_bias=0 / direct=3 / weightb=1 / open_gop=0 / weightp=2 / keyint=120 / keyint_min=61 / scenecut=0 / intra_refresh=0 / rc_lookahead=120 / rc=crf / mbtree=1 / crf=18.0 / qcomp=0.60 / qpmin=0 / qpmax=69 / qpstep=4 / vbv_maxrate=15000 / vbv_bufsize=31250 / crf_max=0.0 / nal_hrd=vbr / filler=0 / ip_ratio=1.40 / aq=3:1.00
Language : English
Default : Yes
Forced : No
Color range : Limited
Color primaries : BT.709
Transfer characteristics : BT.709
Matrix coefficients : BT.709

Audio #1
ID : 2
Format : AC-3
Format/Info : Audio Coding 3
Commercial name : Dolby Digital
Codec ID : A_AC3
Duration : 1 h 46 min
Bit rate mode : Constant
Bit rate : 192 kb/s
Channel(s) : 2 channels
Channel layout : L R
Sampling rate : 48.0 kHz
Frame rate : 31.250 FPS (1536 SPF)
Bit depth : 16 bits
Compression mode : Lossy
Stream size : 147 MiB (2%)
Title : UKR (Inter)
Language : Ukrainian
Service kind : Complete Main
Default : Yes
Forced : Yes

Audio #2
ID : 3
Format : E-AC-3
Format/Info : Enhanced AC-3
Commercial name : Dolby Digital Plus
Codec ID : A_EAC3
Duration : 1 h 46 min
Bit rate mode : Constant
Bit rate : 640 kb/s
Channel(s) : 6 channels
Channel layout : L R C LFE Ls Rs
Sampling rate : 48.0 kHz
Frame rate : 31.250 FPS (1536 SPF)
Compression mode : Lossy
Stream size : 490 MiB (7%)
Title : DD+ 5.1 @ 640 kbps
Language : English
Service kind : Complete Main
Default : No
Forced : No

Text #1
ID : 4
Format : UTF-8
Codec ID : S_TEXT/UTF8
Codec ID/Info : UTF-8 Plain Text
Title : UKR (на місця без перекладу)
Language : Ukrainian
Default : Yes
Forced : Yes

Text #2
ID : 5
Format : UTF-8
Codec ID : S_TEXT/UTF8
Codec ID/Info : UTF-8 Plain Text
Title : ENG
Language : English
Default : No
Forced : No

Text #3
ID : 6
Format : UTF-8
Codec ID : S_TEXT/UTF8
Codec ID/Info : UTF-8 Plain Text
Title : ENG SDH
Language : English
Default : No
Forced : No

Menu
00:00:00.000 : en:Prologue... Handled
00:02:54.500 : en:Bloody Discovery
00:06:42.485 : en:Called to 1600
00:08:54.117 : en:National Security
00:13:21.509 : en:The Missing Name
00:16:18.561 : en:Battle at Harlan's
00:19:36.717 : en:A Suspect Emerges
00:25:55.095 : en:Intruder Alert
00:30:06.430 : en:Into Sharper Focus
00:32:22.065 : en:An Eye on Kyle
00:38:24.886 : en:An Eye on Harlan
00:40:14.996 : en:The Ugly Truth
00:43:43.538 : en:Nina Takes a Chance
00:46:29.829 : en:Team Spirit
00:48:50.636 : en:Hasty Exit
00:51:49.231 : en:Duty-Bound
00:54:16.044 : en:Make Us Disappear
00:56:17.499 : en:Kyle Beyond Reach?
01:00:04.309 : en:Others Present
01:03:45.321 : en:Sharpshooting
01:05:57.954 : en:Jordan's Advice
01:08:43.453 : en:Doesn't Add Up
01:11:29.994 : en:Trailer to Spikings
01:15:22.143 : en:House of Targets
01:18:08.809 : en:News for Naive
01:19:58.127 : en:Tape's Secrets
01:21:55.327 : en:President Choice
01:23:42.601 : en:In Via the Way Out
01:25:12.232 : en:Stengel Diversion
01:27:31.214 : en:Underground
01:29:55.265 : en:Ambush in the Dark
01:32:15.822 : en:Two-Way Strategy
01:35:58.586 : en:Janitor's Punch
01:37:55.161 : en:Laying Down the Law
01:40:13.382 : en:Casualties of War
01:41:23.494 : en:Who You Know
01:43:07.431 : en:End Credits
Скріншоти





За доріжку та субтитри подяка п.: dvorsky, NemoInFire
Особиста подяка пану denixx за надану матеріальну допомогу на підтримку цього і майбутніх релізів.
Джерело:


Срібний реліз (на рейтинг впливає 50% завантаженого)
 Трекер:    Зареєстрований   

Завантажити / скачати фільм українською



відео для новачків



 Зареєстрований:   2020-04-26 17:25
 Розмір:   7.03 GB 
 Оцінка фільму:   9.8/10 (Голосів: 4)
   
Інші релізи
   Вбивство у Білому домі / Murder at 1600 (1997) NemoInFire  2 / 0   1.46 GB   2011-09-24 19:38 
Ваш часовий пояс: GMT + 2 Години

Нова тема   Відповісти