Полдарк / Poldark (Сезон 4) (2018) 1080p Ukr/Eng

Нові коментарі

Нова тема   Відповісти
Останній раз роздавалося sergiyko.5 (2020-11-26)
Автор Повідомлення
sergiyko.5 
Забанено
Забанено


З нами з: 25.02.16
Востаннє: 29.10.20
Повідомлень: 3650

2020-04-26 16:19  
Всі одноіменні релізи на трекері

Полдарк / Poldark (Сезон 4) (2018) 1080p Ukr/Eng


Полдарк / Poldark (Сезон 4) (2018) 1080p Ukr/Eng

Жанр: драма, мелодрама, історичний
Країна: Велика Британія
Кінокомпанія: Mammoth Screen
Режисер: Джосс Егнью, Селлі Апрахаміан, Едвард Базалгетт
Актори: Ейдан Тернер, Елінор Томлінсон, Джек Фартінг, Беті Едні, Трістан Старрок, Люк Норріс, Хейда Рід, Габріелла Уайлд, Піп Торренс, Керолайн Блекістон

Сюжет:
Сюжет серіалу заснований на історії Росса Полдарка, який повертається після війни додому. Тут він дізнається, що батько помер, а на фермі заправляють п'яниці слуги. Крім цього, наречена головного героя побралася з його кузеном, так як думала, що Полдарк помер.




Тривалість: 1 серія: 59:00 (цілком серій: 8 з 8)
Якість:

Відео: кодек: розмір кадру: 1920x1080 бітрейт: 9000 кб/с
Аудіо # 1: мова: українська переклад: двоголосий закадровий кодек: 2.0 бітрейт: 192 кб/с
Озвучення: (Михайло Войчук і Ольга Гриськова)
Аудіо # 2: мова: англійська переклад: оригінал кодек: 2.0 бітрейт: 192 кб/с
Перелік серій
епізод 01
епізод 02
епізод 03
епізод 04
епізод 05
епізод 06
епізод 07
епізод 08
Про файл:
General
Unique ID : 143562973345177569360309851881669617216 (0x6C013911BFADF76739AD75AE7B276640)
Complete name : \\Nas0257aa\video_2\SERIAL\Poldark S04 1080p \Poldark.S04E01.2018.1080p..
Format :
Format version : Version 4
File size : 3.90 GiB
Duration : 59 min 24 s
Overall bit rate : 9 403 kb/s
Movie name : Poldark S04 1080p by sergiyko
Encoded date : UTC 2020-04-14 16:26:44
Writing application : v44.0.0 ('Domino') 64-bit
Writing library : libebml v1.3.10 + v1.5.2

Video
ID : 1
Format : AVC
Format/Info : Advanced Video Codec
Format profile : [email protected]
Format settings : CABAC / 4 Ref Frames
Format settings, CABAC : Yes
Format settings, Reference : 4 frames
Codec ID : V_MPEG4/ISO/AVC
Duration : 59 min 24 s
Bit rate : 9 020 kb/s
Width : 1 920 pixels
Height : 1 080 pixels
Display aspect ratio : 16:9
Frame rate mode : Constant
Frame rate : 25.000 FPS
Color space : YUV
Chroma subsampling : 4:2:0
Bit depth : 8 bits
Scan type : Progressive
Bits/(Pixel*Frame) : 0.174
Stream size : 3.74 GiB (96%)
Title : S04E01
Writing library : core 155 r2901 7d0ff22
Encoding settings : cabac=1 / ref=4 / deblock=1:-3:-3 / analyse=0x3:0x113 / me=umh / subme=8 / psy=1 / psy_rd=1.00:0.00 / mixed_ref=1 / me_range=32 / chroma_me=1 / trellis=1 / 8x8dct=1 / cqm=0 / deadzone=21,11 / fast_pskip=1 / chroma_qp_offset=-2 / threads=24 / lookahead_threads=4 / sliced_threads=0 / nr=0 / decimate=1 / interlaced=0 / bluray_compat=0 / constrained_intra=0 / bframes=3 / b_pyramid=2 / b_adapt=2 / b_bias=0 / direct=3 / weightb=1 / open_gop=0 / weightp=2 / keyint=250 / keyint_min=25 / scenecut=40 / intra_refresh=0 / rc_lookahead=50 / rc=2pass / mbtree=1 / bitrate=9020 / ratetol=1.0 / qcomp=0.60 / qpmin=0 / qpmax=69 / qpstep=4 / cplxblur=20.0 / qblur=0.5 / ip_ratio=1.40 / aq=3:0.80
Language : English
Default : Yes
Forced : No

Audio #1
ID : 2
Format : AC-3
Format/Info : Audio Coding 3
Commercial name : Dolby Digital
Codec ID : A_AC3
Duration : 59 min 24 s
Bit rate mode : Constant
Bit rate : 192 kb/s
Channel(s) : 2 channels
Channel layout : L R
Sampling rate : 48.0 kHz
Frame rate : 31.250 FPS (1536 SPF)
Compression mode : Lossy
Stream size : 81.6 MiB (2%)
Title : MOV
Language : Ukrainian
Service kind : Complete Main
Default : Yes
Forced : Yes

Audio #2
ID : 3
Format : AC-3
Format/Info : Audio Coding 3
Commercial name : Dolby Digital
Codec ID : A_AC3
Duration : 59 min 24 s
Bit rate mode : Constant
Bit rate : 192 kb/s
Channel(s) : 2 channels
Channel layout : L R
Sampling rate : 48.0 kHz
Frame rate : 31.250 FPS (1536 SPF)
Compression mode : Lossy
Stream size : 81.6 MiB (2%)
Title : Original
Language : English
Service kind : Complete Main
Default : No
Forced : Yes

Menu
00:00:00.000 : en:00:00:00.000
00:15:16.880 : en:00:15:16.880
00:30:43.360 : en:00:30:43.360
00:45:18.160 : en:00:45:18.160
Скріншоти:


Запис звуку/зведення: sergiyko


Срібний реліз (на рейтинг впливає 50% завантаженого)
 Трекер:    Зареєстрований   

Завантажити / скачати серіал українською



відео для новачків



 Зареєстрований:   2020-04-26 16:19
 Розмір:   31.31 GB 
 Оцінка серіалу:   9.5/10 (Голосів: 2)
   
Ваш часовий пояс: GMT + 2 Години

Нова тема   Відповісти