Останнє Королівство (Сезон 4) / The Last Kingdom (Season 4) (2020) AVC Ukr/Eng | Sub Ukr/Eng

Нові коментарі

Нова тема   Відповісти
Автор Повідомлення
Цікава ідея 
VIP


З нами з: 26.12.11
Востаннє: 21.09.20
Повідомлень: 664

2020-04-26 13:13  
AVC | 720p | 1080p

Останнє Королівство (Сезон 4) / The Last Kingdom (Season 4) (2020) AVC Ukr/Eng | Sub Ukr/Eng


Останнє Королівство (Сезон 4) / The Last Kingdom (Season 4) (2020) AVC Ukr/Eng | Sub Ukr/Eng


Жанр: пригодницький, історичний, романтичний
Країна: Британія



Кінокомпанія / телеканал: BBC, Netflix, Carnival Film & Television
Режисери: Пітер Гоар, Ентоні Бірн, Бен Ченен та інші.
Актори: Александер Дреймон, Єн Гарт, Дейвід Доусон, Тобіас Сантелмен, Емілі Кокс, Едріан Бавер, Еймі Врен, Ніколет Барабас, Нора Лілі Горіч та інші.

Сюжет:
Англія, 872-й рік. Сакс, якого виховали дани, мусить стати на чийсь бік і відіграти свою роль у народженні нової нації пліч-о-пліч з людиною, яку згодом назвуть Королем Альфредом Великим.


На озвучення серіалу проходить ЗБІР КОШТІВ

Перекладено та озвучено ТО "Цікава Ідея" на замовлення HURTOM.COM


Тривалість: 1 серія: ~ 55 хв. (цілком серій: 10)
Перелік серій:

01. Episode #4.1
02. Episode #4.2
03. Episode #4.3
04. Episode #4.4
05. Episode #4.5
06. Episode #4.6
07. Episode #4.7
08. Episode #4.8
09. Episode #4.9
10. Episode #4.10
Якість: AVC
Відео:
кодек:
розмір кадру: 720 x 400
бітрейт: ~ 1 100 кб/с

Аудіо # 1:
мова: українська | "Цікава Ідея"
переклад: професійний багатоголосий закадровий
кодек: 5.1
бітрейт: 448 кб/с

Аудіо # 2:
мова: англійська
переклад: оригінал
кодек: E- 5.1
бітрейт: 640 кб/с

Субтитри # 1:
мова: українська
тип: програмні (м'які)
формат: *.srt

Субтитри # 2:
мова: англійська
тип: програмні (м'які)
формат: *.srt
Info
Код:
Format                      :
Format version              : Version 4
File size                   : 872 MiB
Duration                    : 56 min 4 s
Overall bit rate            : 2 173 kb/s
Movie name                  : Останнє Королівство / The Last Kingdom - S04E01 (2020) AVC [Ukr.Eng] [Цікава Ідея]
Encoded date                : UTC 2020-04-26 21:17:00
Writing application         : v6.8.0 ('Theme for Great Cities') 32bit built on Mar  2 2014 21:27:07
Writing library             : libebml v1.3.0 + v1.4.1
Cover                       : Yes
Attachments                 : cover.png

Video
ID                          : 1
Format                      : AVC
Format/Info                 : Advanced Video Codec
Format profile              : [email protected]
Format settings             : CABAC / 5 Ref Frames
Format settings, CABAC      : Yes
Format settings, Reference  : 5 frames
Codec ID                    : V_MPEG4/ISO/AVC
Duration                    : 56 min 4 s
Bit rate                    : 1 042 kb/s
Nominal bit rate            : 1 100 kb/s
Width                       : 720 pixels
Height                      : 400 pixels
Display aspect ratio        : 16:9
Frame rate mode             : Constant
Frame rate                  : 25.000 FPS
Color space                 : YUV
Chroma subsampling          : 4:2:0
Bit depth                   : 8 bits
Scan type                   : Progressive
Bits/(Pixel*Frame)          : 0.145
Stream size                 : 418 MiB (48%)
Writing library             : core 148 r2795M aaa9aa8
Encoding settings           : cabac=1 / ref=5 / deblock=1:-1:-1 / analyse=0x3:0x113 / me=umh / subme=9 / psy=1 / psy_rd=1.00:0.15 / mixed_ref=1 / me_range=16 / chroma_me=1 / trellis=2 / 8x8dct=1 / cqm=0 / deadzone=21,11 / fast_pskip=1 / chroma_qp_offset=-3 / threads=24 / lookahead_threads=2 / sliced_threads=0 / nr=0 / decimate=1 / interlaced=0 / bluray_compat=0 / constrained_intra=0 / bframes=3 / b_pyramid=2 / b_adapt=2 / b_bias=0 / direct=3 / weightb=1 / open_gop=0 / weightp=2 / keyint=250 / keyint_min=25 / scenecut=40 / intra_refresh=0 / rc_lookahead=50 / rc=abr / mbtree=1 / bitrate=1100 / ratetol=1.0 / qcomp=0.60 / qpmin=0 / qpmax=69 / qpstep=4 / ip_ratio=1.40 / aq=1:1.00
Default                     : Yes
Forced                      : No

Audio #1
ID                          : 2
Format                      : AC-3
Format/Info                 : Audio Coding 3
Commercial name             : Dolby Digital
Codec ID                    : A_AC3
Duration                    : 56 min 4 s
Bit rate mode               : Constant
Bit rate                    : 448 kb/s
Channel(s)                  : 6 channels
Channel layout              : L R C LFE Ls Rs
Sampling rate               : 48.0 kHz
Frame rate                  : 31.250 FPS (1536 SPF)
Bit depth                   : 16 bits
Compression mode            : Lossy
Stream size                 : 180 MiB (21%)
Title                       : Українська
Language                    : Ukrainian
Service kind                : Complete Main
Default                     : Yes
Forced                      : No

Audio #2
ID                          : 3
Format                      : E-AC-3
Format/Info                 : Enhanced AC-3
Commercial name             : Dolby Digital Plus
Codec ID                    : A_EAC3
Duration                    : 56 min 4 s
Bit rate mode               : Constant
Bit rate                    : 640 kb/s
Channel(s)                  : 6 channels
Channel layout              : L R C LFE Ls Rs
Sampling rate               : 48.0 kHz
Frame rate                  : 31.250 FPS (1536 SPF)
Compression mode            : Lossy
Stream size                 : 257 MiB (29%)
Title                       : English
Language                    : English
Service kind                : Complete Main
Default                     : No
Forced                      : No

Text #1
ID                          : 4
Format                      : UTF-8
Codec ID                    : S_TEXT/UTF8
Codec ID/Info               : UTF-8 Plain Text
Title                       : Ukrainian
Language                    : Ukrainian
Default                     : No
Forced                      : No

Text #2
ID                          : 5
Format                      : UTF-8
Codec ID                    : S_TEXT/UTF8
Codec ID/Info               : UTF-8 Plain Text
Title                       : English
Language                    : English
Default                     : No
Forced                      : No
Скріншоти



Озвучено творчим об'єднанням:
Ролі озвучили: Семен Птаха, Ольга Мотрич, Євген Малуха, Андрій Корзаченко, Олександр Чернов та Олексій Сафін.


Авторський реліз (завантажувати можна без реєстрації)
 Трекер:    Зареєстрований   

Завантажити / скачати серіал українською



відео для новачків



 Зареєстрований:   2020-05-02 23:24
 Розмір:   8.17 GB 
 Оцінка серіалу:   9.7/10 (Голосів: 44)
 Озвучено 9-10 серії. Фінал сезону!
   
kotiko4321 
Свій


З нами з: 18.11.16
Востаннє: 20.09.20
Повідомлень: 80

2020-04-26 15:03  
О, один з найкращих серіалів. Не можу дочекатися.
bot 
робот


З нами з: 30.09.07
Востаннє: 26.05.05
Повідомлень: 25548

2020-04-27 00:22  
Тему перенесено з Анонси релізів до форуму Телесеріали


Цікава ідея

Цікава ідея 
VIP


З нами з: 26.12.11
Востаннє: 21.09.20
Повідомлень: 664

2020-04-27 00:24  
Друзі, ми озвучили 1 серію.

Бажаємо всім приємного перегляду!

Цікава ідея 
VIP


З нами з: 26.12.11
Востаннє: 21.09.20
Повідомлень: 664

2020-04-27 21:42  
Друзі, ми озвучили 2 серію!

Бажаємо всім приємного перегляду!

Цікава ідея 
VIP


З нами з: 26.12.11
Востаннє: 21.09.20
Повідомлень: 664

2020-04-28 18:14  
Друзі, ми озвучили 3 серію!

Бажаємо всім приємного перегляду!

Menestr 
Частий відвідувач


З нами з: 29.04.09
Востаннє: 15.09.20
Повідомлень: 32

2020-04-29 16:52  
Дуже класний серіал та чудове озвучення. Лише старий голос Утреда був кращий, якийсь мужніший.
Цікава ідея 
VIP


З нами з: 26.12.11
Востаннє: 21.09.20
Повідомлень: 664

2020-04-29 17:48  
Друзі, ми озвучили 4-5 серії!

Бажаємо всім приємного перегляду!

Dark Invader 
Модератор відео


З нами з: 06.01.11
Востаннє: 20.09.20
Повідомлень: 2938

2020-04-29 21:49  
Menestr написано:
Лише старий голос Утреда був кращий, якийсь мужніший.

"Мужній" голос в Утреда був лише в 3-му сезоні. В перших двох сезонах він був ще менш "мужній" ніж зараз. Wink (2)

Menestr 
Частий відвідувач


З нами з: 29.04.09
Востаннє: 15.09.20
Повідомлень: 32

2020-04-30 18:51  
А сьогодні буде 6 серія?
Цікава ідея 
VIP


З нами з: 26.12.11
Востаннє: 21.09.20
Повідомлень: 664

2020-04-30 21:37  
Menestr
так!

Додано через 2 години 33 хвилини 38 секунд:

Друзі, ми озвучили 6 серію!

Бажаємо всім приємного перегляду!

Цікава ідея 
VIP


З нами з: 26.12.11
Востаннє: 21.09.20
Повідомлень: 664

2020-05-01 21:32  
Друзі, ми озвучили 7 серію!

Бажаємо всім приємного перегляду!


Додано через 1 годину 44 хвилини 34 секунди:

Друзі, ми озвучили 8 серію!

Бажаємо всім приємного перегляду!

Цікава ідея 
VIP


З нами з: 26.12.11
Востаннє: 21.09.20
Повідомлень: 664

2020-05-02 23:26  
Друзі, ми озвучили 9-10 серії. Фінал сезону!
Дякуємо всім за увагу та підтримку!


Бажаємо всім приємного перегляду!

Itial 
Новенький


З нами з: 16.01.15
Востаннє: 21.09.20
Повідомлень: 5

2020-05-02 23:50  
Дякую! З вашими голосами та перекладом дуже приємно дивитися серіал )
kotiko4321 
Свій


З нами з: 18.11.16
Востаннє: 20.09.20
Повідомлень: 80

2020-05-03 10:03  
Дякую за хороши та швидкий переклад.
Сезон крутий як і сам серіал.

Vadey 
Новенький


З нами з: 17.02.15
Востаннє: 20.09.20
Повідомлень: 1

2020-05-06 23:59  
Озвучення досить приємне. Але самому серіалу капець. Кількість безглуздих сюжетних поворотів зашкалює. Дій персонажів втрачають рештки логіки а невідповідності починають вже не дратувати а викликати регіт. Починали непогано а потім сценаристам завезли свіжих речовин з Колумбії
RemH7 
Новенький


З нами з: 15.08.11
Востаннє: 31.08.20
Повідомлень: 18

2020-05-11 10:56  
Vadey
Бляха, дійшов до вашого коментаря і зажурився. Невже його спіткала доля Вікінгів?

Оповідач 
Поважний учасник


З нами з: 13.03.11
Востаннє: 17.09.20
Повідомлень: 214

2020-05-13 19:17  
RemH7 написано:
Бляха, дійшов до вашого коментаря і зажурився. Невже його спіткала доля Вікінгів?

Я б не сказав що вони скотились до рівня ікінгів останніх сезонів,хоча третій був яскравішим і логічнішим за четвертий.

Ваш часовий пояс: GMT + 2 Години

Нова тема   Відповісти