Зелена миля / The Green Mile (1999) [JPN Transfer] 1080p H.265 Ukr/Eng | Sub Ukr/Eng

Нові коментарі

Нова тема   Відповісти
Автор Повідомлення
Anonymous 







2020-04-26 11:58  
Зелена миля / The Green Mile (1999) [JPN Transfer] 1080p H.265 Ukr/Eng | Sub Ukr/Eng

Зелена миля / The Green Mile (1999) [JPN Transfer] 1080p H.265 Ukr/Eng | Sub Ukr/Eng


Жанр: кримінальний, драма, фантастика
Країна: США
Кінокомпанія: Castle Rock Entertainment, Darkwoods Productions, Warner Bros. Pictures
Режисер: Френк Дарабонт (Frank Darabont)
Актори: Том Генкс (Tom Hanks), Дейвід Морс (David Morse), Бонні Гант (Bonnie Hunt), Майкл Кларк Дункан (Michael Clarke Duncan), Джеймс Кромвель (James Cromwell), Майкл Джетер (Michael Jeter), Ґрем Ґрін (Graham Greene), Даґ Гатчісон (Doug Hutchison), Сем Роквелл (Sam Rockwell), Баррі Пеппер (Barry Pepper), Джеффрі ДеМанн (Jeffrey DeMunn), Патриція Кларксон (Patricia Clarkson), Гаррі Дін Стентон (Harry Dean Stanton) та інші.

Сюжет:
Пол Еджкомб – у молодості працював у блоці смертників в’язниці «Холодна гора», прозваному «Зелена миля» – за колір підлоги у в’язничному коридорі... Було це в 1934 році, за часів Великої Депресії ... Звинувачений у страшному злочині, Джон Коффі опиняється в блоці смертників. Новий в’язень був дуже величезний на зріст і дуже спокійним, що, втім, ніяк не вплинуло на ставлення до нього начальника блоку – звик до всякого, за роки роботи в «Зеленій милі». Здоровань здивував усіх пізніше, коли з’ясувалося, що він володіє неймовірною магічною силою ...

Саме Джонові Коффі судилося зіграти головну роль у долі усіх героїв цієї історії. Про це, через багато років і згадує, в будинку для людей похилого віку - дідусь Пол Еджкомб.

Тривалість: 03:08:38
Якість:

Відео:
кодек: H.265 (HEVC)
розмір кадру: 1920 x 1040
бітрейт: 7 557 кб/с
бітова глибина: 10 біт

Увага! Перед завантаженням переконайтесь, що ваш пристрій відтворення (та/або ПЗ) підтримує H.265 (HEVC)

Аудіо # 1:
мова: українська
переклад: багатоголосий закадровий ,
кодек: AC-3 2.0
бітрейт: 192 кб/с

Аудіо # 2:
мова: англійська
переклад: оригінал
кодек: 5.1
бітрейт: 1511 кб/с

Аудіо # 3:
мова: англійська
переклад: Commentary by writer/director Frank Darabont
кодек: 2.0
бітрейт: 96 кб/с

Субтитри # 1: (Full)
мова: українська
тип: програмні (м'які)
формат: *.srt

Субтитри # 2-3: (Full, SDH)
мова: англійська
тип: програмні (м'які)
формат: *.srt


Info
Код:
General
Unique ID                                : 90985699504131665093478303879378902819 (0x447335545E31564C714C365419061F23)
Complete name                            : The Green Mile (1999) [JPN Transfer] 1080p H.265 [UKR_ENG] [Hurtom].
Format                                   :
Format version                           : Version 4
File size                                : 12.3 GiB
Duration                                 : 3 h 8 min
Overall bit rate                         : 9 354 kb/s
Movie name                               : Зелена миля / The Green Mile (1999) [JPN Transfer]
Encoded date                             : UTC 2020-04-26 08:08:49
Writing application                      : v20.0.0 ('I Am The Sun') 64-bit
Writing library                          : libebml v1.3.5 + v1.4.8
Cover                                    : Yes
Attachments                              : Cover.jpg

Video
ID                                       : 1
Format                                   : HEVC
Format/Info                              : High Efficiency Video Coding
Format profile                           : Main [email protected]@High
Codec ID                                 : V_MPEGH/ISO/HEVC
Duration                                 : 3 h 8 min
Bit rate                                 : 7 556 kb/s
Width                                    : 1 920 pixels
Height                                   : 1 040 pixels
Display aspect ratio                     : 1.85:1
Frame rate mode                          : Constant
Frame rate                               : 23.976 (24000/1001) FPS
Color space                              : YUV
Chroma subsampling                       : 4:2:0
Bit depth                                : 10 bits
Bits/(Pixel*Frame)                       : 0.158
Stream size                              : 9.96 GiB (81%)
Title                                    : Зелена миля / The Green Mile (1999) [JPN Transfer]
Writing library                          : x265 3.0_Au+4-dcbec33bfb0f:[Windows][GCC 9.0.1][64 bit] 10bit
Encoding settings                        : cpuid=1111039 / frame-threads=4 / numa-pools=16 / wpp / no-pmode / no-pme / no-psnr / no-ssim / log-level=2 / input-csp=1 / input-res=1920x1040 / interlace=0 / total-frames=271469 / level-idc=41 / high-tier=1 / uhd-bd=0 / ref=4 / no-allow-non-conformance / no-repeat-headers / annexb / no-aud / no-hrd / info / hash=0 / no-temporal-layers / open-gop / min-keyint=23 / keyint=250 / gop-lookahead=0 / bframes=12 / b-adapt=2 / b-pyramid / bframe-bias=0 / rc-lookahead=60 / lookahead-slices=4 / scenecut=40 / radl=0 / no-splice / no-intra-refresh / ctu=32 / min-cu-size=8 / rect / amp / max-tu-size=32 / tu-inter-depth=4 / tu-intra-depth=4 / limit-tu=1 / rdoq-level=2 / dynamic-rd=0.00 / no-ssim-rd / signhide / no-tskip / nr-intra=0 / nr-inter=0 / no-constrained-intra / no-strong-intra-smoothing / max-merge=5 / limit-refs=1 / limit-modes / me=3 / subme=7 / merange=57 / temporal-mvp / weightp / weightb / no-analyze-src-pics / deblock=-3:-3 / no-sao / no-sao-non-deblock / rd=6 / no-early-skip / rskip / no-fast-intra / no-tskip-fast / no-cu-lossless / b-intra / no-splitrd-skip / rdpenalty=0 / psy-rd=2.00 / psy-rdoq=1.00 / no-rd-refine / no-lossless / cbqpoffs=0 / crqpoffs=0 / rc=crf / crf=19.3 / qcomp=0.63 / qpstep=4 / stats-write=0 / stats-read=0 / vbv-maxrate=50000 / vbv-bufsize=50000 / vbv-init=0.9 / crf-max=0.0 / crf-min=0.0 / ipratio=1.40 / pbratio=1.30 / aq-mode=2 / aq-strength=1.00 / no-cutree / zone-count=1 / zones: / start-frame=259826 / end-frame=271468 / qp=35 / no-strict-cbr / qg-size=32 / no-rc-grain / qpmax=69 / qpmin=0 / no-const-vbv / sar=1 / overscan=0 / videoformat=5 / range=0 / colorprim=1 / transfer=1 / colormatrix=1 / chromaloc=0 / display-window=0 / max-cll=0,0 / min-luma=0 / max-luma=1023 / log2-max-poc-lsb=8 / vui-timing-info / vui-hrd-info / slices=1 / no-opt-qp-pps / no-opt-ref-list-length-pps / no-multi-pass-opt-rps / scenecut-bias=0.05 / no-opt-cu-delta-qp / no-aq-motion / no-hdr / no-hdr-opt / no-dhdr10-opt / no-idr-recovery-sei / analysis-reuse-level=5 / scale-factor=0 / refine-intra=0 / refine-inter=0 / refine-mv=0 / refine-ctu-distortion=0 / no-limit-sao / ctu-info=0 / no-lowpass-dct / refine-analysis-type=0 / copy-pic=1 / max-ausize-factor=1.0 / no-dynamic-refine / no-single-sei / hevc-aq / qp-adaptation-range=2.00
Language                                 : English
Default                                  : Yes
Forced                                   : No
Color range                              : Limited
Color primaries                          : BT.709
Transfer characteristics                 : BT.709
Matrix coefficients                      : BT.709

Audio #1
ID                                       : 2
Format                                   : AC-3
Format/Info                              : Audio Coding 3
Commercial name                          : Dolby Digital
Codec ID                                 : A_AC3
Duration                                 : 3 h 8 min
Bit rate mode                            : Constant
Bit rate                                 : 192 kb/s
Channel(s)                               : 2 channels
Channel layout                           : L R
Sampling rate                            : 48.0 kHz
Frame rate                               : 31.250 FPS (1536 SPF)
Compression mode                         : Lossy
Stream size                              : 259 MiB (2%)
Title                                    : / 2.0 Ch / 192 kbps / БЗ / ICTV, NLO
Language                                 : Ukrainian
Service kind                             : Complete Main
Default                                  : Yes
Forced                                   : Yes

Audio #2
ID                                       : 3
Format                                   :
Format/Info                              : Digital Theater Systems
Codec ID                                 : A_DTS
Duration                                 : 3 h 8 min
Bit rate mode                            : Constant
Bit rate                                 : 1 510 kb/s
Channel(s)                               : 6 channels
Channel layout                           : C L R Ls Rs LFE
Sampling rate                            : 48.0 kHz
Frame rate                               : 93.750 FPS (512 SPF)
Bit depth                                : 24 bits
Compression mode                         : Lossy
Stream size                              : 1.99 GiB (16%)
Title                                    : / 5.1 Ch / 1509 kbps / Original
Language                                 : English
Default                                  : No
Forced                                   : No

Audio #3
ID                                       : 4
Format                                   : LC
Format/Info                              : Advanced Audio Codec Low Complexity
Codec ID                                 : A_AAC-2
Duration                                 : 3 h 8 min
Bit rate                                 : 96.0 kb/s
Channel(s)                               : 2 channels
Channel layout                           : L R
Sampling rate                            : 48.0 kHz
Frame rate                               : 46.875 FPS (1024 SPF)
Compression mode                         : Lossy
Delay relative to video                  : 20 ms
Stream size                              : 128 MiB (1%)
Title                                    : / 2.0 Ch / 96 kbps / Original / Commentary by writer/director Frank Darabont
Language                                 : English
Default                                  : No
Forced                                   : No

Text #1
ID                                       : 5
Format                                   : UTF-8
Codec ID                                 : S_TEXT/UTF8
Codec ID/Info                            : UTF-8 Plain Text
Duration                                 : 2 h 58 min
Bit rate                                 : 69 b/s
Count of elements                        : 1565
Stream size                              : 91.5 KiB (0%)
Title                                    : Full
Language                                 : Ukrainian
Default                                  : Yes
Forced                                   : No

Text #2
ID                                       : 6
Format                                   : UTF-8
Codec ID                                 : S_TEXT/UTF8
Codec ID/Info                            : UTF-8 Plain Text
Duration                                 : 2 h 58 min
Bit rate                                 : 43 b/s
Count of elements                        : 2073
Stream size                              : 56.5 KiB (0%)
Title                                    : Full
Language                                 : English
Default                                  : No
Forced                                   : No

Text #3
ID                                       : 7
Format                                   : UTF-8
Codec ID                                 : S_TEXT/UTF8
Codec ID/Info                            : UTF-8 Plain Text
Duration                                 : 2 h 59 min
Bit rate                                 : 48 b/s
Count of elements                        : 2391
Stream size                              : 63.2 KiB (0%)
Title                                    : SDH
Language                                 : English
Default                                  : No
Forced                                   : No

Menu
00:00:00.000                             : en:Same As Always (Charmaine)
00:03:59.739                             : en:Overcome (Cheek to Cheek)
00:07:41.628                             : en:1935 (Old Alabama)
00:10:24.541                             : en:Dead Man Walking
00:15:50.408                             : en:Leave the Light on?
00:18:16.887                             : en:Coffey's Story
00:21:51.936                             : en:Percy Squeals
00:25:14.263                             : en:Paul and Jan (Old-Fashioned Love)
00:27:10.838                             : en:Little Visitor
00:30:51.892                             : en:Percy Meets the Mouse
00:36:25.892                             : en:Rehearsal
00:41:33.741                             : en:Arlen's Best Time
00:43:58.177                             : en:Execution
00:45:54.919                             : en:What Percy Wants
00:47:47.281                             : en:A Circus Mouse
00:51:15.155                             : en:Sad News
00:53:31.959                             : en:Night's Unrest
00:55:14.770                             : en:Wild Bill Arrives
01:00:38.009                             : en:Coffey Takes It Back
01:05:15.203                             : en:Feels Great (I Can't Give You Anything But Love)
01:08:24.934                             : en:Hammersmith's Warning
01:14:12.156                             : en:Several Times Pleased (Three Little Words)
01:16:14.111                             : en:Wild Bill's Lessons
01:21:47.319                             : en:Showtime
01:24:09.294                             : en:Just Playing
01:27:36.501                             : en:Percy Strikes
01:30:37.807                             : en:Reborn
01:33:26.434                             : en:The Deal
01:36:38.710                             : en:Final Arrangements
01:40:09.545                             : en:Task Undone
01:44:22.089                             : en:Haywire
01:48:02.226                             : en:All That Hurt
01:52:39.878                             : en:A Good Day (Did You Ever See a Dream Walking?)
01:55:04.481                             : en:The Coffey Plot
01:59:51.684                             : en:All In
02:03:49.631                             : en:Payback for Percy
02:05:50.376                             : en:Bad Man's Grasp
02:07:56.711                             : en:To Help a Lady
02:10:52.845                             : en:The Warden's House
02:14:12.127                             : en:Melinda's Bedside
02:17:56.935                             : en:"I Dreamed of You"
02:21:22.391                             : en:Percy's Release
02:25:51.993                             : en:Sentence Carried Out
02:30:05.371                             : en:Paul Sees for Himself
02:34:26.674                             : en:Percy Gets His Wish
02:36:01.811                             : en:No Way Out (Wrap Your Troubles in Dreams [and Dream Your Troubles Away])
02:38:20.157                             : en:Tired
02:42:07.927                             : en:In Heaven (Cheek to Cheek)
02:44:12.718                             : en:Afraid of the Dark
02:48:52.414                             : en:Kill What They Love
02:53:01.538                             : en:An Old Friend
02:55:49.539                             : en:My Punishment
03:00:35.033                             : en:End Credits
Світлини




Джерело: &
Особиста оцінка: 10 - без зайвих вагань рекомендую всім!


Срібний реліз (на рейтинг впливає 50% завантаженого)
 Трекер:    Зареєстрований   

Завантажити / скачати фільм українською



відео для новачків



 Зареєстрований:   2020-04-26 11:58
 Розмір:   12.33 GB 
 Оцінка фільму:   10/10 (Голосів: 3)
   
Ваш часовий пояс: GMT + 2 Години

Нова тема   Відповісти