Скелелаз / Cliffhanger (1993) [4K Restoration] 1080p H.265 2xUkr/Eng | Sub Eng

Нові коментарі

Нова тема   Відповісти
Останній раз роздавалося [email protected] (2020-09-28)
Автор Повідомлення
Anonymous 







2020-04-26 11:01  
Скелелаз / Cliffhanger (1993) [4K Restoration] 1080p H.265 2xUkr/Eng | Sub Eng

Скелелаз / Cliffhanger (1993) [4K Restoration] 1080p H.265 2xUkr/Eng | Sub Eng


Жанр: бойовик, трилер, пригодницький
Країна: США, Італія, Франція
Кінокомпанія: Carolco Pictures, Canal+, Pioneer
Режисер: Ренні Гарлін / Renny Harlin
Актори: Сильвестер Сталлоне / Sylvester Stallone, Джон Літґоу / John Lithgow, Майкл Рукер / Michael Rooker, Пол Вінфілд / Paul Winfield та інші

Сюжет:
У горах після снігової лавини загубилися п’ятеро людей. На пошуки вирушає один з найкращих альпіністів – Гейб Вокер. Несподівано він усвідомлює, що його навмисне заманили в гори для виконання іншого завдання.

Тепер очевидно, що Гейб стане небажаним свідком, якого позбудуться без вагань. Але так просто віддавати своє життя він не збирається, і оголошує війну банді озброєних до зубів бойовиків на чолі з міжнародним терористом Еріком Кваленом...

Тривалість: 01:52:30
Якість: [4K Restoration]

Відео:
кодек: H.265 (HEVC)
розмір кадру: 1920 x 816
бітрейт: 12 042 кб/с
бітова глибина: 10 біт

Увага! Перед завантаженням переконайтесь, що ваш пристрій відтворення (та/або ПЗ) підтримує H.265 (HEVC)

Аудіо # 1:
мова: українська
переклад: професійний дубльований
кодек: AC-3 2.0
бітрейт: 192 кб/с

Аудіо # 2:
мова: українська
переклад: двоголосий закадровий
кодек: AC-3 2.0
бітрейт: 192 кб/с

Аудіо # 3:
мова: англійська
переклад: оригінал
кодек: 5.1
бітрейт: 1510 кб/с

Аудіо # 4:
мова: англійська
переклад: коментарі режисера Ренні Гарліна та Сильвестра Сталлоне
кодек: AC-3 2.0
бітрейт: 192 кб/с

Аудіо # 5:
мова: англійська
переклад: коментарі технічної служби
кодек: AC-3 2.0
бітрейт: 192 кб/с

Субтитри # 1-3: (Full, SDH - Sony, SDH - Studio Canal)
мова: англійська
тип: програмні (м'які)
формат: *.srt


Info
Код:
General
Unique ID                                : 222034214542783130627385090454271894601 (0xA70A3BF7968DB730A7170B007B712449)
Complete name                            : Cliffhanger (1993) [4K Restoration] 1080p H.265 [2xUKR_ENG] [Hurtom].
Format                                   :
Format version                           : Version 4
File size                                : 11.3 GiB
Duration                                 : 1 h 52 min
Overall bit rate                         : 14.3 Mb/s
Movie name                               : Скелелаз / Cliffhanger (1993) [4K Restoration]
Encoded date                             : UTC 2020-04-25 23:13:07
Writing application                      : v20.0.0 ('I Am The Sun') 64-bit
Writing library                          : libebml v1.3.5 + v1.4.8
Cover                                    : Yes
Attachments                              : Cover.jpg

Video
ID                                       : 1
Format                                   : HEVC
Format/Info                              : High Efficiency Video Coding
Format profile                           : Main [email protected]@Main
Codec ID                                 : V_MPEGH/ISO/HEVC
Duration                                 : 1 h 52 min
Bit rate                                 : 12.0 Mb/s
Width                                    : 1 920 pixels
Height                                   : 816 pixels
Display aspect ratio                     : 2.35:1
Frame rate mode                          : Constant
Frame rate                               : 24.000 FPS
Color space                              : YUV
Chroma subsampling                       : 4:2:0
Bit depth                                : 10 bits
Bits/(Pixel*Frame)                       : 0.320
Stream size                              : 9.46 GiB (84%)
Title                                    : Скелелаз / Cliffhanger (1993) [4K Restoration]
Writing library                          : x265 3.3+2-gd9a7411cc:[Windows][MSVC 1925][64 bit] 10bit
Encoding settings                        : cpuid=1111039 / frame-threads=3 / numa-pools=8 / wpp / no-pmode / no-pme / no-psnr / no-ssim / log-level=2 / input-csp=1 / input-res=1920x816 / interlace=0 / total-frames=162011 / level-idc=0 / high-tier=1 / uhd-bd=0 / ref=5 / no-allow-non-conformance / no-repeat-headers / annexb / no-aud / no-hrd / info / hash=0 / no-temporal-layers / open-gop / min-keyint=23 / keyint=240 / gop-lookahead=0 / bframes=12 / b-adapt=2 / b-pyramid / bframe-bias=0 / rc-lookahead=60 / lookahead-slices=0 / scenecut=40 / hist-scenecut=0 / radl=0 / no-splice / no-intra-refresh / ctu=64 / min-cu-size=8 / rect / amp / max-tu-size=32 / tu-inter-depth=4 / tu-intra-depth=4 / limit-tu=1 / rdoq-level=2 / dynamic-rd=0.00 / no-ssim-rd / signhide / no-tskip / nr-intra=0 / nr-inter=0 / no-constrained-intra / no-strong-intra-smoothing / max-merge=5 / limit-refs=3 / no-limit-modes / me=3 / subme=7 / merange=57 / temporal-mvp / no-frame-dup / no-hme / weightp / weightb / no-analyze-src-pics / deblock=-3:-3 / no-sao / no-sao-non-deblock / rd=6 / selective-sao=0 / no-early-skip / rskip / no-fast-intra / no-tskip-fast / no-cu-lossless / b-intra / no-splitrd-skip / rdpenalty=0 / psy-rd=2.00 / psy-rdoq=1.00 / no-rd-refine / no-lossless / cbqpoffs=0 / crqpoffs=0 / rc=crf / crf=18.4 / qcomp=0.70 / qpstep=4 / stats-write=0 / stats-read=0 / ipratio=1.40 / pbratio=1.30 / aq-mode=4 / aq-strength=0.80 / no-cutree / zone-count=1 / zones: / start-frame=152294 / end-frame=162011 / qp=36 / no-strict-cbr / qg-size=32 / no-rc-grain / qpmax=69 / qpmin=0 / no-const-vbv / sar=1 / overscan=0 / videoformat=5 / range=0 / colorprim=2 / transfer=2 / colormatrix=2 / chromaloc=0 / display-window=0 / cll=0,0 / min-luma=0 / max-luma=1023 / log2-max-poc-lsb=8 / vui-timing-info / vui-hrd-info / slices=1 / no-opt-qp-pps / no-opt-ref-list-length-pps / no-multi-pass-opt-rps / scenecut-bias=0.00 / hist-threshold=0.01 / no-opt-cu-delta-qp / no-aq-motion / no-hdr10 / no-hdr10-opt / no-dhdr10-opt / no-idr-recovery-sei / analysis-reuse-level=0 / analysis-save-reuse-level=0 / analysis-load-reuse-level=0 / scale-factor=0 / refine-intra=0 / refine-inter=0 / refine-mv=1 / refine-ctu-distortion=0 / no-limit-sao / ctu-info=0 / no-lowpass-dct / refine-analysis-type=0 / copy-pic=1 / max-ausize-factor=1.0 / no-dynamic-refine / no-single-sei / no-hevc-aq / no-svt / no-field / qp-adaptation-range=1.00 / no-scenecut-aware-qpconformance-window-offsets / right=0 / bottom=0
Language                                 : English
Default                                  : Yes
Forced                                   : No

Audio #1
ID                                       : 2
Format                                   : AC-3
Format/Info                              : Audio Coding 3
Commercial name                          : Dolby Digital
Codec ID                                 : A_AC3
Duration                                 : 1 h 52 min
Bit rate mode                            : Constant
Bit rate                                 : 192 kb/s
Channel(s)                               : 2 channels
Channel layout                           : L R
Sampling rate                            : 48.0 kHz
Frame rate                               : 31.250 FPS (1536 SPF)
Compression mode                         : Lossy
Stream size                              : 155 MiB (1%)
Title                                    : / 2.0 Ch / 192 kbps / ПД / NLO
Language                                 : Ukrainian
Service kind                             : Complete Main
Default                                  : Yes
Forced                                   : Yes

Audio #2
ID                                       : 3
Format                                   : AC-3
Format/Info                              : Audio Coding 3
Commercial name                          : Dolby Digital
Codec ID                                 : A_AC3
Duration                                 : 1 h 52 min
Bit rate mode                            : Constant
Bit rate                                 : 192 kb/s
Channel(s)                               : 2 channels
Channel layout                           : L R
Sampling rate                            : 48.0 kHz
Frame rate                               : 31.250 FPS (1536 SPF)
Compression mode                         : Lossy
Stream size                              : 155 MiB (1%)
Title                                    : / 2.0 Ch / 192 kbps / ДЗ / 2+2
Language                                 : Ukrainian
Service kind                             : Complete Main
Default                                  : No
Forced                                   : No

Audio #3
ID                                       : 4
Format                                   :
Format/Info                              : Digital Theater Systems
Codec ID                                 : A_DTS
Duration                                 : 1 h 52 min
Bit rate mode                            : Constant
Bit rate                                 : 1 509 kb/s
Channel(s)                               : 6 channels
Channel layout                           : C L R Ls Rs LFE
Sampling rate                            : 48.0 kHz
Frame rate                               : 93.750 FPS (512 SPF)
Bit depth                                : 24 bits
Compression mode                         : Lossy
Stream size                              : 1.19 GiB (11%)
Title                                    : / 5.1 Ch / 1509 kbps / Original
Language                                 : English
Default                                  : No
Forced                                   : No

Audio #4
ID                                       : 5
Format                                   : AC-3
Format/Info                              : Audio Coding 3
Commercial name                          : Dolby Digital
Codec ID                                 : A_AC3
Duration                                 : 1 h 52 min
Bit rate mode                            : Constant
Bit rate                                 : 192 kb/s
Channel(s)                               : 2 channels
Channel layout                           : L R
Sampling rate                            : 48.0 kHz
Frame rate                               : 31.250 FPS (1536 SPF)
Compression mode                         : Lossy
Stream size                              : 155 MiB (1%)
Title                                    : / 2.0 Ch / 192 kbps / Original / Коментар режисера Ренні Гарліна та Сильвестра Сталлоне
Language                                 : English
Service kind                             : Complete Main
Default                                  : No
Forced                                   : No

Audio #5
ID                                       : 6
Format                                   : AC-3
Format/Info                              : Audio Coding 3
Commercial name                          : Dolby Digital
Codec ID                                 : A_AC3
Duration                                 : 1 h 52 min
Bit rate mode                            : Constant
Bit rate                                 : 192 kb/s
Channel(s)                               : 2 channels
Channel layout                           : L R
Sampling rate                            : 48.0 kHz
Frame rate                               : 31.250 FPS (1536 SPF)
Compression mode                         : Lossy
Stream size                              : 155 MiB (1%)
Title                                    : / 2.0 Ch / 192 kbps / Original / Коментар технічної служби
Language                                 : English
Service kind                             : Complete Main
Default                                  : No
Forced                                   : No

Text #1
ID                                       : 7
Format                                   : UTF-8
Codec ID                                 : S_TEXT/UTF8
Codec ID/Info                            : UTF-8 Plain Text
Duration                                 : 1 h 42 min
Bit rate                                 : 47 b/s
Count of elements                        : 1059
Stream size                              : 35.8 KiB (0%)
Title                                    : Full
Language                                 : English
Default                                  : No
Forced                                   : No

Text #2
ID                                       : 8
Format                                   : UTF-8
Codec ID                                 : S_TEXT/UTF8
Codec ID/Info                            : UTF-8 Plain Text
Duration                                 : 1 h 43 min
Bit rate                                 : 53 b/s
Count of elements                        : 1214
Stream size                              : 40.5 KiB (0%)
Title                                    : SDH - Sony
Language                                 : English
Default                                  : No
Forced                                   : No

Text #3
ID                                       : 9
Format                                   : UTF-8
Codec ID                                 : S_TEXT/UTF8
Codec ID/Info                            : UTF-8 Plain Text
Duration                                 : 1 h 43 min
Bit rate                                 : 55 b/s
Count of elements                        : 1302
Stream size                              : 41.9 KiB (0%)
Title                                    : SDH - Studio Canal
Language                                 : English
Default                                  : No
Forced                                   : No

Menu
00:00:00.000                             : en:Opening Titles
00:06:05.907                             : en:Sarah
00:13:24.804                             : en:Gabe Is Back
00:20:38.904                             : en:Travers' Move
00:22:48.617                             : en:"Let's Make History"
00:27:14.383                             : en:Crash Landing
00:30:01.758                             : en:"We Need Insulin"
00:34:28.358                             : en:Qualen's FBI Dossier
00:38:03.740                             : en:Useless Items?
00:40:27.008                             : en:Gabe on a Leash
00:45:09.332                             : en:An Expensive Funeral
00:49:08.070                             : en:Jessie to the Future
00:49:53.157                             : en:Old Douglas Mine
00:52:20.137                             : en:Fresty the Cash-Man
00:55:16.104                             : en:Flair for Skiing
01:03:35.812                             : en:Bats
01:11:08.306                             : en:Kynette Gets the Point
01:14:19.789                             : en:Wired for Landslide
01:18:27.870                             : en:Frank to the Rescue
01:21:58.747                             : en:Real Love
01:26:01.490                             : en:Dirty Soccer
01:29:22.357                             : en:The Rabbit Lives
01:32:17.866                             : en:Leap for Life
01:33:55.547                             : en:Ice Fishing
01:35:32.769                             : en:Can the Angel Fly?
01:37:31.637                             : en:Ladder to Live By
01:41:46.559                             : en:Qualen & Walker
01:42:55.086                             : en:Safety Rules
Світлини




Джерело: &
Особиста оцінка: 0 - не дивився


Срібний реліз (на рейтинг впливає 50% завантаженого)
 Трекер:    Зареєстрований   

Завантажити / скачати фільм українською



відео для новачків



 Зареєстрований:   2020-04-26 11:01
 Розмір:   11.26 GB 
 Оцінка фільму:   9.8/10 (Голосів: 6)
   
Інші релізи
   Скелелаз / Cliffhanger (1993) [Remastered] Remux 1080p 2xUkr/Eng | Sub Eng kryk-v.ya.  2 / 0   25.13 GB   2020-03-31 19:28 
   Скелелаз / Cliffhanger (1993) [Remastered] AVC 2xUkr/Eng | Sub Eng igor911  2 / 0   2.54 GB   2019-09-05 16:26 
   Скелелаз / Cliffhanger (1993) [Remastered] 720p 2xUkr/Eng | Sub Eng igor911  4 / 0   5.95 GB   2019-05-30 22:45 
   Скелелаз / Cliffhanger (1993) [Remastered] 1080p 2xUkr/Eng | Sub Eng igor911  3 / 0   10.19 GB   2019-05-30 22:10 
   Скелелаз / Cliffhanger (1993) AVC 2xUkr/Eng | Sub Eng omm  4 / 0   2.17 GB   2019-05-30 21:50 
   Скелелаз / Cliffhanger (1993) Ukr/Eng robotron005  5 / 0   2.03 GB   2012-10-17 18:42 
Ваш часовий пояс: GMT + 2 Години

Нова тема   Відповісти