Шлях Карліто / Carlito's Way (1993) 1080p Ukr/Eng | Sub Eng

Нові коментарі

Нова тема   Відповісти
Автор Повідомлення
PatataFrita 
Свій


З нами з: 05.04.20
Востаннє: 08.09.20
Повідомлень: 83

2020-04-26 09:03  
Шлях Карліто / Carlito's Way (1993) 1080p Ukr/Eng | Sub Eng

Шлях Карліто / Carlito's Way (1993) 1080p Ukr/Eng | Sub Eng


Жанр: драма, кримінал
Країна: США



Кінокомпанія: Universal Pictures, Epic Productions, Bregman/Baer Productions
Режисер: Браян Де Пальма (Brian De Palma)
Актори: Аль Пачіно (Al Pacino), Шон Пенн (Sean Penn), Пенелопа Енн Міллер (Penelope Ann Miller), Джон Леґуізамо (John Leguizamo), Інґрід Роджерс (Ingrid Rogers), Луіс Ґузман (Luis Guzmán), Джеймс Ребгорн (James Rebhorn), Джозеф Сіраво (Joseph Siravo), Віґо Мортенсен (Viggo Mortensen), Марк Ентоні (Marc Anthony)

Сюжет:
Нью-Йорк, 70-і роки ХХ століття. Помітний наркоділок-пуерторіканець Карліто Бріґанте виходить із в’язниці, де відсидів п’ять років. Він повертається до коханої жінки з бажанням покинути колишнє заняття й розпочати чесне життя. Одначе кримінальне минуле й прохання близького друга, адвоката Клейнфілда, що допоміг Карліто вибратись на волю, а тепер встряв у небезпечну авантюру, знову збивають героя фільму з праведного шляху.


Тривалість: 02:24:10
Якість: 1080p
Відео:
кодек:
розмір кадру: 1920x816
бітрейт: 7962 кб/с

Аудіо # 1:
мова: українська
переклад: двоголосий закадровий
кодек: 5.1
бітрейт: 448 кб/с

Аудіо # 2:
мова: англійська
переклад: оригінал
кодек: 5.1
бітрейт: 1509 кб/с

Джерело озвучення:


Субтитри:
мова: англійська
тип: програмні (м'які)
формат: *.srt
Info
General
Unique ID : 135784388280235669159001665403242311845 (0x66271F37420F7E2BA7C52A3232E670A5)
Complete name : D:\Шлях Карліто - Carlito's Way (1993) 1080p [UKR][ENG][Hurtom].
Format :
Format version : Version 4
File size : 9.99 GiB
Duration : 2 h 24 min
Overall bit rate : 9 922 kb/s
Movie name : Шлях Карліто / Carlito's Way (1993) 1080p [UKR][ENG][Hurtom]
Encoded date : UTC 2020-04-26 05:26:06
Writing application : v45.0.0 ('Heaven in Pennies') 32-bit
Writing library : libebml v1.3.10 + v1.5.2
Cover : Yes
Attachments : cover.jpg

Video
ID : 1
Format : AVC
Format/Info : Advanced Video Codec
Format profile : [email protected]
Format settings : CABAC / 4 Ref Frames
Format settings, CABAC : Yes
Format settings, Reference : 4 frames
Codec ID : V_MPEG4/ISO/AVC
Duration : 2 h 24 min
Bit rate : 7 962 kb/s
Width : 1 920 pixels
Height : 816 pixels
Display aspect ratio : 2.35:1
Frame rate mode : Constant
Frame rate : 23.976 (24000/1001) FPS
Color space : YUV
Chroma subsampling : 4:2:0
Bit depth : 8 bits
Scan type : Progressive
Bits/(Pixel*Frame) : 0.212
Stream size : 8.02 GiB (80%)
Writing library : core 125 r2200 999b753
Encoding settings : cabac=1 / ref=4 / deblock=1:-1:-1 / analyse=0x3:0x113 / me=umh / subme=9 / psy=1 / psy_rd=1.00:0.15 / mixed_ref=1 / me_range=24 / chroma_me=1 / trellis=2 / 8x8dct=1 / cqm=0 / deadzone=21,11 / fast_pskip=1 / chroma_qp_offset=-3 / threads=6 / lookahead_threads=1 / sliced_threads=0 / nr=0 / decimate=1 / interlaced=0 / bluray_compat=0 / constrained_intra=0 / bframes=11 / b_pyramid=2 / b_adapt=2 / b_bias=0 / direct=1 / weightb=1 / open_gop=0 / weightp=2 / keyint=230 / keyint_min=23 / scenecut=40 / intra_refresh=0 / rc=crf / mbtree=0 / crf=20.0 / qcomp=0.60 / qpmin=0 / qpmax=69 / qpstep=4 / ip_ratio=1.40 / pb_ratio=1.30 / aq=1:1.00
Language : English
Default : Yes
Forced : No

Audio #1
ID : 2
Format : AC-3
Format/Info : Audio Coding 3
Commercial name : Dolby Digital
Codec ID : A_AC3
Duration : 2 h 24 min
Bit rate mode : Constant
Bit rate : 448 kb/s
Channel(s) : 6 channels
Channel layout : L R C LFE Ls Rs
Sampling rate : 48.0 kHz
Frame rate : 31.250 FPS (1536 SPF)
Compression mode : Lossy
Stream size : 462 MiB (5%)
Title : Студія 1+1
Language : Ukrainian
Service kind : Complete Main
Default : Yes
Forced : Yes

Audio #2
ID : 3
Format :
Format/Info : Digital Theater Systems
Codec ID : A_DTS
Duration : 2 h 24 min
Bit rate mode : Constant
Bit rate : 1 509 kb/s
Channel(s) : 6 channels
Channel layout : C L R Ls Rs LFE
Sampling rate : 48.0 kHz
Frame rate : 93.750 FPS (512 SPF)
Bit depth : 24 bits
Compression mode : Lossy
Stream size : 1.52 GiB (15%)
Title : Original
Language : English
Default : No
Forced : No

Text
ID : 4
Format : UTF-8
Codec ID : S_TEXT/UTF8
Codec ID/Info : UTF-8 Plain Text
Duration : 2 h 18 min
Bit rate : 59 b/s
Count of elements : 1750
Stream size : 60.3 KiB (0%)
Title : английский
Language : English
Default : No
Forced : No

Menu
00:00:00.000 : en:Close to the Ground
00:05:03.500 : en:A Free Man
00:17:42.583 : en:The Legend's Cousin
00:27:40.200 : en:Saso's Place
00:32:01.083 : en:Benny Blanco from the Bronx
00:36:34.666 : en:One Face That Still Knows You
00:45:24.166 : en:Taglialucci's Plan
00:50:35.916 : en:A Standup Guy
00:58:37.333 : en:Gail's Job
01:03:30.866 : en:A Problem with Benny
01:11:40.283 : en:Kleinfeld's Dilemma
01:17:23.916 : en:If You Can't Get In...
01:24:42.283 : en:That Bad Drinker Face
01:33:43.450 : en:Crossing the Line
01:45:17.283 : en:The D.A.'s Tape Recording
01:52:25.833 : en:One Last Piece of Business
01:57:33.916 : en:Amadesso's Angle
02:03:24.283 : en:On the Run
02:13:53.666 : en:Paradise Lost
02:18:59.283 : en:End Titles
Скріншоти
За синхронізацію укр. доріжки подяка Lan,
за звукозапис з ТБ подяка robotron005

Джерело: &
Особиста оцінка: 8 - мені сподобалося


Срібний реліз (на рейтинг впливає 50% завантаженого)
 Трекер:    Зареєстрований   

Завантажити / скачати фільм українською



відео для новачків



 Зареєстрований:   2020-04-26 09:03
 Розмір:   9.99 GB 
 Оцінка фільму:   10/10 (Голосів: 2)
   
Інші релізи
Ваш часовий пояс: GMT + 2 Години

Нова тема   Відповісти