Рататуй / Ratatouille (2007) 1080p H.265 Ukr/Eng | Sub Ukr/Eng

Нові коментарі

Нова тема   Відповісти
Автор Повідомлення
Anonymous 







2020-04-26 01:10  
Рататуй / Ratatouille (2007) 1080p H.265 Ukr/Eng | Sub Ukr/Eng

Рататуй / Ratatouille (2007) 1080p H.265 Ukr/Eng | Sub Ukr/Eng


Жанр: Мультиплікаційна комедія
Країна: США
Кінокомпанія: Pixar & Disney Company
Режисер: Бред Бьорд
Актори: Петтон Освальт, Йен Холм, Лу Романо, Брайан Деннехи, Пітер Сон, Пітер О `Тул, Бред Гаррет, Джанин Гарофало, Уілл Арнетт, Джуліус Каллахан, Джеймс Ремар, Джон Ратценбергер, Тедді Ньютон, Тоні Фучіле, Бред Берд, Джейк Штайнфельд.

Сюжет:
Щур Ремі живе з своєю сім'єю в сільському будиночку. Він має надзвичайно тонкий нюх і відчуття смаку. Телепередача про книгу кращого кухаря Франції Гюсто, яку він побачив в будинку відкриває перед ним світ кулінарії. Володарка будинку дізналася про існування щурячої сім'ї і виганяє їх з свого будинку. Ремі потрапляє у водостік і втрачає своїх близьких. Вибравшись нагору, він опиняється в Парижі, біля ресторану знаменитого Гюсто, якого вже немає в живих. Потрапивши на кухню ресторану Ремі рятує суп, зіпсований прибиральником Лінгвіні. Але ця спроба ледве не коштувала Ремі життя. Його ловлять і доручають Лінгвіні знищити Ремі. Хлопець і Ремі знаходять спільну мову і починають працювати разом. Руками Лінгвіні Ремі творить кулінарні шедеври, чим схиляє на свою сторону відвідувачів і кулінарних критиків. Разом з тим виявляється, що Лінгвіні — син Гюсто і має отримати ресторан в спадщину. Натомість в ресторані господарює шеф-кухар Жкуродер. Перед вирішальним випробуванням, коли страви нового шеф-повара Лінгвіні повинен був оцінити найсуворіший кулінарний критик, Лінгвіні розкриває свій секрет про Ремі кухарям. В результаті кухарі залишають його і хлопець залишається один. Але на допомогу приходить сім'я Ремі, яка чекала на нього на вулиці. Лінгвіні бере на себе роль офіціанта, а Ремі і його сім'я виконують всю кухонну роботу. Результат їх старань приводить критика в захоплення. Ресторан знаходить минулий престиж, але слава не триває довго. Інспектор закриває ресторан за порушення санітарних норм через присутність щурів. Проте Лінгвіні і Ремі відкривають свій ресторан під назвою «Рататуй», котрий користується великим успіхом.

Тривалість: 01:50:33
Якість:

Відео:
кодек: H.265 (HEVC)
розмір кадру: 1920 x 804
бітрейт: 3 998 кб/с
бітова глибина: 10 біт

Увага! Перед завантаженням переконайтесь, що ваш пристрій відтворення (та/або ПЗ) підтримує H.265 (HEVC)

Аудіо # 1:
мова: українська
переклад: професійний дубльований
кодек: AC-3 5.1
бітрейт: 640 кб/с

Аудіо # 2:
мова: англійська
переклад: оригінал
кодек: 5.1
бітрейт: 1510 кб/с

Субтитри # 1-2: (Forced, Full)
мова: українська
тип: програмні (м'які)
формат: *.srt

Субтитри # 3-5: (Full #1, Full #2, SDH)
мова: англійська
тип: програмні (м'які)
формат: *.srt


Info
Код:
General
Unique ID                                : 171646324150405179962934605374295820289 (0x8121E12A5AB7B450992CE21D30BAC801)
Complete name                            : Ratatouille (2007) 1080p H.265 [UKR_ENG] [Hurtom].
Format                                   :
Format version                           : Version 4
File size                                : 4.76 GiB
Duration                                 : 1 h 50 min
Overall bit rate                         : 6 138 kb/s
Movie name                               : Рататуй / Ratatouille (2007)
Encoded date                             : UTC 2020-04-25 22:35:34
Writing application                      : v20.0.0 ('I Am The Sun') 64-bit
Writing library                          : libebml v1.3.5 + v1.4.8
Cover                                    : Yes
Attachments                              : Cover.jpg

Video
ID                                       : 1
Format                                   : HEVC
Format/Info                              : High Efficiency Video Coding
Format profile                           : Main [email protected]@High
Codec ID                                 : V_MPEGH/ISO/HEVC
Duration                                 : 1 h 50 min
Bit rate                                 : 3 998 kb/s
Width                                    : 1 920 pixels
Height                                   : 804 pixels
Display aspect ratio                     : 2.40:1
Frame rate mode                          : Constant
Frame rate                               : 23.976 (23976/1000) FPS
Original frame rate                      : 23.976 (24000/1001) FPS
Color space                              : YUV
Chroma subsampling                       : 4:2:0
Bit depth                                : 10 bits
Bits/(Pixel*Frame)                       : 0.108
Stream size                              : 3.09 GiB (65%)
Title                                    : Рататуй / Ratatouille (2007)
Writing library                          : x265 3.3+1-g554c887ac:[Windows][MSVC 1924][64 bit] 10bit
Encoding settings                        : cpuid=1111039 / frame-threads=3 / numa-pools=12 / wpp / no-pmode / no-pme / no-psnr / no-ssim / log-level=2 / input-csp=1 / input-res=1920x804 / interlace=0 / total-frames=159042 / level-idc=41 / high-tier=1 / uhd-bd=0 / ref=5 / no-allow-non-conformance / no-repeat-headers / annexb / no-aud / no-hrd / info / hash=0 / no-temporal-layers / open-gop / min-keyint=23 / keyint=240 / gop-lookahead=0 / bframes=12 / b-adapt=2 / b-pyramid / bframe-bias=0 / rc-lookahead=60 / lookahead-slices=4 / scenecut=40 / hist-scenecut=0 / radl=0 / no-splice / no-intra-refresh / ctu=32 / min-cu-size=8 / rect / amp / max-tu-size=32 / tu-inter-depth=4 / tu-intra-depth=4 / limit-tu=1 / rdoq-level=2 / dynamic-rd=0.00 / no-ssim-rd / signhide / no-tskip / nr-intra=0 / nr-inter=0 / no-constrained-intra / no-strong-intra-smoothing / max-merge=4 / limit-refs=2 / limit-modes / me=3 / subme=7 / merange=57 / temporal-mvp / no-frame-dup / no-hme / weightp / weightb / no-analyze-src-pics / deblock=-3:-3 / no-sao / no-sao-non-deblock / rd=6 / selective-sao=0 / no-early-skip / no-rskip / no-fast-intra / no-tskip-fast / no-cu-lossless / no-b-intra / no-splitrd-skip / rdpenalty=0 / psy-rd=2.00 / psy-rdoq=1.00 / no-rd-refine / no-lossless / cbqpoffs=0 / crqpoffs=0 / rc=crf / crf=19.0 / qcomp=0.60 / qpstep=4 / stats-write=0 / stats-read=0 / vbv-maxrate=50000 / vbv-bufsize=50000 / vbv-init=0.9 / crf-max=0.0 / crf-min=0.0 / ipratio=1.40 / pbratio=1.30 / aq-mode=1 / aq-strength=1.00 / no-cutree / zone-count=0 / no-strict-cbr / qg-size=32 / no-rc-grain / qpmax=69 / qpmin=0 / no-const-vbv / sar=1 / overscan=0 / videoformat=5 / range=0 / colorprim=1 / transfer=1 / colormatrix=1 / chromaloc=0 / display-window=0 / cll=0,0 / min-luma=0 / max-luma=1023 / log2-max-poc-lsb=8 / vui-timing-info / vui-hrd-info / slices=1 / no-opt-qp-pps / no-opt-ref-list-length-pps / no-multi-pass-opt-rps / scenecut-bias=0.05 / hist-threshold=0.01 / no-opt-cu-delta-qp / no-aq-motion / no-hdr10 / no-hdr10-opt / no-dhdr10-opt / no-idr-recovery-sei / analysis-reuse-level=0 / analysis-save-reuse-level=0 / analysis-load-reuse-level=0 / scale-factor=0 / refine-intra=0 / refine-inter=0 / refine-mv=1 / refine-ctu-distortion=0 / no-limit-sao / ctu-info=0 / no-lowpass-dct / refine-analysis-type=0 / copy-pic=1 / max-ausize-factor=1.0 / no-dynamic-refine / no-single-sei / no-hevc-aq / no-svt / no-field / qp-adaptation-range=1.00 / no-scenecut-aware-qpconformance-window-offsets / right=0 / bottom=0
Default                                  : Yes
Forced                                   : No
Color range                              : Limited
Color primaries                          : BT.709
Transfer characteristics                 : BT.709
Matrix coefficients                      : BT.709

Audio #1
ID                                       : 2
Format                                   : AC-3
Format/Info                              : Audio Coding 3
Commercial name                          : Dolby Digital
Codec ID                                 : A_AC3
Duration                                 : 1 h 50 min
Bit rate mode                            : Constant
Bit rate                                 : 640 kb/s
Channel(s)                               : 6 channels
Channel layout                           : L R C LFE Ls Rs
Sampling rate                            : 48.0 kHz
Frame rate                               : 31.250 FPS (1536 SPF)
Compression mode                         : Lossy
Delay relative to video                  : 1 s 0 ms
Stream size                              : 508 MiB (10%)
Title                                    : / 5.1 Ch / 640 kbps / ПД / Blu-Ray
Language                                 : Ukrainian
Service kind                             : Complete Main
Default                                  : Yes
Forced                                   : Yes

Audio #2
ID                                       : 3
Format                                   :
Format/Info                              : Digital Theater Systems
Codec ID                                 : A_DTS
Duration                                 : 1 h 50 min
Bit rate mode                            : Constant
Bit rate                                 : 1 509 kb/s
Channel(s)                               : 6 channels
Channel layout                           : C L R Ls Rs LFE
Sampling rate                            : 48.0 kHz
Frame rate                               : 93.750 FPS (512 SPF)
Bit depth                                : 24 bits
Compression mode                         : Lossy
Delay relative to video                  : 1 s 0 ms
Stream size                              : 1.17 GiB (25%)
Title                                    : / 5.1 Ch / 1509 kbps / Original
Language                                 : English
Default                                  : No
Forced                                   : No

Text #1
ID                                       : 4
Format                                   : UTF-8
Codec ID                                 : S_TEXT/UTF8
Codec ID/Info                            : UTF-8 Plain Text
Duration                                 : 1 h 42 min
Bit rate                                 : 2 b/s
Count of elements                        : 32
Stream size                              : 1.54 KiB (0%)
Title                                    : Forced
Language                                 : Ukrainian
Default                                  : Yes
Forced                                   : Yes

Text #2
ID                                       : 5
Format                                   : UTF-8
Codec ID                                 : S_TEXT/UTF8
Codec ID/Info                            : UTF-8 Plain Text
Duration                                 : 1 h 42 min
Bit rate                                 : 109 b/s
Count of elements                        : 1339
Stream size                              : 81.9 KiB (0%)
Title                                    : Full
Language                                 : Ukrainian
Default                                  : No
Forced                                   : No

Text #3
ID                                       : 6
Format                                   : UTF-8
Codec ID                                 : S_TEXT/UTF8
Codec ID/Info                            : UTF-8 Plain Text
Duration                                 : 1 h 42 min
Bit rate                                 : 64 b/s
Count of elements                        : 1300
Stream size                              : 48.0 KiB (0%)
Title                                    : Full #1
Language                                 : English
Default                                  : No
Forced                                   : No

Text #4
ID                                       : 7
Format                                   : UTF-8
Codec ID                                 : S_TEXT/UTF8
Codec ID/Info                            : UTF-8 Plain Text
Duration                                 : 1 h 42 min
Bit rate                                 : 66 b/s
Count of elements                        : 1371
Stream size                              : 49.6 KiB (0%)
Title                                    : Full #2
Language                                 : English
Default                                  : No
Forced                                   : No

Text #5
ID                                       : 8
Format                                   : UTF-8
Codec ID                                 : S_TEXT/UTF8
Codec ID/Info                            : UTF-8 Plain Text
Duration                                 : 1 h 42 min
Bit rate                                 : 86 b/s
Count of elements                        : 1612
Stream size                              : 64.8 KiB (0%)
Title                                    : SDH
Language                                 : English
Default                                  : No
Forced                                   : No

Menu
00:00:00.000                             : :World's Best
00:01:15.239                             : :This is Me
00:06:28.469                             : :Taste This
00:09:21.934                             : :Caught
00:10:57.112                             : :Exodus
00:13:30.015                             : :Wall Rat
00:17:39.055                             : :Le Cooks
00:19:36.589                             : :Big Break
00:24:47.358                             : :Discovered
00:28:54.271                             : :The Pact
00:33:04.104                             : :First Day
00:38:12.454                             : :Test Drive
00:40:32.177                             : :Accidental Success
00:44:10.270                             : :Cooking With Colette
00:46:58.354                             : :Something New
00:51:26.706                             : :Old and New Friends
00:57:01.207                             : :Homecoming
00:59:31.357                             : :Exterminator
01:00:52.563                             : :Kiss & Vinegar
01:07:18.782                             : :Losing Control
01:11:24.694                             : :Paper Chase
01:15:27.270                             : :Up & Down
01:19:24.132                             : :Heist to See You
01:23:29.168                             : :Big Night(mare)
01:25:33.501                             : :Ego Orders
01:28:17.373                             : :Truth Hurts
01:32:38.050                             : :Dinner Rush
01:35:40.482                             : :Best Shot
01:38:48.753                             : :The Review
01:40:53.712                             : :La Ratatouille
01:42:58.002                             : :End Creditouilles
Світлини




Джерело: &
Особиста оцінка: 10 - без зайвих вагань рекомендую всім!


 Трекер:    Зареєстрований   

Завантажити / скачати мультфільм українською



відео для новачків



 Зареєстрований:   2020-04-26 01:10
 Розмір:   4.76 GB 
 Оцінка мультфільму:   10/10 (Голосів: 18)
   
Інші релізи
   Рататуй / Ratatouille (2007) UHD Remux 4K 2160p HDR H.265 Ukr/Eng | Sub Ukr/Eng vgfu34  12 / 0   40.41 GB   2021-01-10 20:24 
   Рататуй / Ratatouille (2007) [MP4, 640x] apvAltisimo  2 / 0   919 MB   2016-05-22 13:13 
   Рататуй / Ratatouille (2007) AVC BASTERD-94  19 / 0   1.02 GB   2014-07-14 20:30 
   Рататуй / Ratatouille (2007) 720p Ukr/Eng | Sub Ukr/Eng braveboy  40 / 1   4.37 GB   2012-04-03 03:59 
   Рататуй / Ratatouille (2007) Remux 1080p Ukr/Eng | Sub Ukr/Eng Kuzmenko  3 / 0   25.23 GB   2011-01-25 11:11 
   Рататуй / Ratatouille (2007) 1080p Ukr/Eng | Sub Ukr/Eng Kuzmenko  23 / 2   8.45 GB   2011-01-24 16:40 
   Рататуй / Ratatouille (2007) Ukr | Sub Ukr/Eng karvai0  45 / 0   1.46 GB   2010-10-29 21:21 
bot 
робот


З нами з: 30.09.07
Востаннє: 26.05.05
Повідомлень: 27251

2020-04-26 01:10  
Тему перенесено з Фільми в HD до форуму Мультфільми в HD


-Star-Lord-

kukurudzasergiy 
Новенький


З нами з: 28.05.20
Востаннє: 24.02.21
Повідомлень: 12

2020-11-14 19:49  
Дякую щире Вам
Ваш часовий пояс: GMT + 2 Години

Нова тема   Відповісти