Я нічого не знаю, але все скажу (I Don't Know Much, But I'll Say Everything) / Je sais rien, mais je dirai tout (1973) AVC 2xUkr/Fre

Нові коментарі

Нова тема   Відповісти
Автор Повідомлення
Arsenfpu 
Відео Гуртом - фільмокрай
Відео Гуртом - фільмокрай


З нами з: 30.04.09
Востаннє: 04.07.20
Повідомлень: 7031

2020-04-25 22:12  
Я нічого не знаю, але все скажу (I Don't Know Much, But I'll Say Everything) / Je sais rien, mais je dirai tout (1973) AVC 2xUkr/Fre

Я нічого не знаю, але все скажу (I Don't Know Much, But I'll Say Everything) / Je sais rien, mais je dirai tout (1973) AVC 2xUkr/Fre


Жанр: комедія
Країна: Франція



Кінокомпанія: Les Films Christian Fechner, Renn Productions
Режисер: П'єр Рішар
Актори: П'єр Рішар, Бернар Бліє, Елєн Дюк, Андре Ґайяр, Тедді Вріньйо, Бернард Галер, Віктор Лану, Жан Обе, Даніель Прево, П'єр Репп, Андре Торен

Сюжет:
П'єрові вже 33 роки, а він досі не вирішив, ким стати. Чесно кажучи, він - один з тих, хто в принципі не зобов'язаний обирати свій життєвий шлях, тому що батько П'єра - збройовий магнат Гасти Леруа. Й тато вже давно все вирішив: син піде по його стопах. От тільки в сина, виявляється, інші міркування.


Тривалість: 01:18:19
Якість:
Відео:
кодек:
розмір кадру: 1 024 х 608
бітрейт: 2 500 кб/с

Аудіо # 1:
мова: українська
переклад: багатоголосий закадровий
кодек: 2.0
бітрейт: 192 кб/с

Аудіо # 2:
мова: українська
переклад: двоголосий закадровий
кодек: 2.0
бітрейт: 192 кб/с

Аудіо # 3:
мова: французька
переклад: оригінал
кодек: 2.0
бітрейт: 192 кб/с
Скріншоти














Про файл
General
Unique ID : 195784368151805551437934393308749642735 (0x934AB29E36B5FFB3E2C18B06859A3BEF)
Complete name : C:\Je sais rien, mais je dirai tout (1973) [2xUkr,Fre] AVC [Hurtom].
Format :
Format version : Version 4 / Version 2
File size : 1.68 GiB
Duration : 1 h 18 min
Overall bit rate : 3 078 kb/s
Movie name : Я нічого не знаю, але все скажу / Je sais rien, mais je dirai tout (1973)
Encoded date : UTC 2020-04-25 17:40:12
Writing application : v21.0.0 ('Tardigrades Will Inherit The Earth') 32-bit
Writing library : libebml v1.3.5 + v1.4.8
Cover : Yes
Attachments : cover.jpg

Video
ID : 1
Format : AVC
Format/Info : Advanced Video Codec
Format profile : [email protected]
Format settings, CABAC : Yes
Format settings, ReFrames : 4 frames
Codec ID : V_MPEG4/ISO/AVC
Duration : 1 h 18 min
Bit rate : 2 500 kb/s
Width : 1 024 pixels
Height : 608 pixels
Display aspect ratio : 5:3
Frame rate mode : Constant
Frame rate : 25.000 FPS
Color space : YUV
Chroma subsampling : 4:2:0
Bit depth : 8 bits
Scan type : Progressive
Bits/(Pixel*Frame) : 0.161
Stream size : 1.37 GiB (81%)
Writing library : core 157 r2935 545de2f
Encoding settings : cabac=1 / ref=3 / deblock=1:-1:-1 / analyse=0x3:0x113 / me=hex / subme=7 / psy=1 / psy_rd=1.00:0.15 / mixed_ref=1 / me_range=16 / chroma_me=1 / trellis=1 / 8x8dct=1 / cqm=0 / deadzone=21,11 / fast_pskip=1 / chroma_qp_offset=-3 / threads=12 / lookahead_threads=2 / sliced_threads=0 / nr=0 / decimate=1 / interlaced=0 / bluray_compat=0 / constrained_intra=0 / bframes=3 / b_pyramid=2 / b_adapt=1 / b_bias=0 / direct=1 / weightb=1 / open_gop=0 / weightp=2 / keyint=250 / keyint_min=25 / scenecut=40 / intra_refresh=0 / rc_lookahead=40 / rc=2pass / mbtree=1 / bitrate=2500 / ratetol=1.0 / qcomp=0.60 / qpmin=0 / qpmax=69 / qpstep=4 / cplxblur=20.0 / qblur=0.5 / ip_ratio=1.40 / aq=1:1.00
Default : Yes
Forced : No

Audio #1
ID : 2
Format : AC-3
Format/Info : Audio Coding 3
Mode extension : CM (complete main)
Format settings, Endianness : Big
Codec ID : A_AC3
Duration : 1 h 18 min
Bit rate mode : Constant
Bit rate : 192 kb/s
Channel(s) : 2 channels
Channel positions : Front: L R
Sampling rate : 48.0 kHz
Frame rate : 31.250 FPS (1536 spf)
Compression mode : Lossy
Stream size : 108 MiB (6%)
Title : Інтер
Language : Ukrainian
Default : Yes
Forced : Yes

Audio #2
ID : 3
Format : AC-3
Format/Info : Audio Coding 3
Mode extension : CM (complete main)
Format settings, Endianness : Big
Codec ID : A_AC3
Duration : 1 h 18 min
Bit rate mode : Constant
Bit rate : 192 kb/s
Channel(s) : 2 channels
Channel positions : Front: L R
Sampling rate : 48.0 kHz
Frame rate : 31.250 FPS (1536 spf)
Compression mode : Lossy
Stream size : 108 MiB (6%)
Title : Кіно
Language : Ukrainian
Default : No
Forced : No

Audio #3
ID : 4
Format : AC-3
Format/Info : Audio Coding 3
Mode extension : CM (complete main)
Format settings, Endianness : Big
Codec ID : A_AC3
Duration : 1 h 18 min
Bit rate mode : Constant
Bit rate : 192 kb/s
Channel(s) : 2 channels
Channel positions : Front: L R
Sampling rate : 48.0 kHz
Frame rate : 31.250 FPS (1536 spf)
Compression mode : Lossy
Stream size : 108 MiB (6%)
Language : French
Default : No
Forced : No
Джерело:
За українські доріжки дякую п. drop_plz, Bohdan237, rooster, SweetN
Особиста оцінка: не дивився


Срібний реліз (на рейтинг впливає 50% завантаженого)
 Трекер:    Зареєстрований   

Завантажити / скачати фільм українською



відео для новачків



 Зареєстрований:   2020-04-25 22:12
 Розмір:   1.68 GB 
 Оцінка фільму:   9.5/10 (Голосів: 6)
   
hetzendorf 
Попереджень: 2
Попереджень: 2 


З нами з: 23.07.15
Востаннє: 04.07.20
Повідомлень: 2815

2020-04-26 23:27  
Цитата:
Гелен Дюк, Андре Геллард, Тедді Врігно

Я ж писав уже правильну транскрипцію: https://toloka.to/t104454#1124434

Ваш часовий пояс: GMT + 2 Години

Нова тема   Відповісти