Як украсти мільйон / How to steal a million (1966) AVC 2xUkr/Eng [US Transfer] | Sub Ukr/Eng

Нові коментарі

Нова тема   Відповісти
Автор Повідомлення
21jumpstreet 
VIP


З нами з: 03.07.12
Востаннє: 06.07.20
Повідомлень: 1092

2020-04-25 20:46  
Як украсти мільйон / How to steal a million (1966) AVC 2xUkr/Eng [US Transfer] | Sub Ukr/Eng


Як украсти мільйон / How to steal a million (1966) AVC 2xUkr/Eng [US Transfer] | Sub Ukr/Eng


Жанр: комедія, кримінальний, романтичний
Країна: США



Кінокомпанія: 20th century fox
Режисер: Вільям Вайлер / William Wyler
Актори: Одрі Гепберн / Audrey Hepburn, Пітер О'Тул / Peter O'Toole, Елі Воллач / Eli Wallach, Г'ю Ґріффіт / Hugh Griffith, Шарль Буає / Charles Boyer, Фернанд Ґравей / Fernand Gravey, Марсель Даліо / Marcel Dalio, Жак Марін / Jacques Marin, Мусташ / Moustache, Роже Тревіль / Roger Tréville

Сюжет:
Дія відбувається в Парижі. Молода дівчина, дочка мільйонера, який потайки промишляє підробкою творів мистецтва, разом із злочинцем, повинні викрасти з виставки образотворчого мистецтва в музеї один з "шедеврів" батька дівчини, щоб урятувати його від викриття.


Тривалість: 02:03:23
Якість:
Відео:
кодек:
розмір кадру: 1092 х 464
бітрейт: 1858 кб/с

Аудіо # 1:
мова: українська
переклад: двоголосий закадровий (DVB-T2)
кодек: 2.0
бітрейт: 192 кб/с
Ролі озвучили: Володимир Нечепоренко та Наталія Поліщук

Аудіо # 2:
мова: українська
переклад: багатоголосий закадровий
кодек: 2.0
бітрейт: 192 кб/с
Ролі озвучили: Володимир Терещук, Олег Стальчук, Анатолій Пашнін та один жіночий

Аудіо # 3:
мова: англійська
переклад: оригінал
кодек: 2.0
бітрейт: 192 кб/с

Субтитри #1:
мова: українська | повні
тип: програмні (м'які)
формат: *.srt

Субтитри #2:
мова: англійська | повні
тип: програмні (м'які)
формат: *.srt
Скріншоти




Info
C:\How To Steal A Million 1966.AVC [US Transfer] [2xUkr,Eng] [Hurtom].
General
Unique ID : 101350175236056860968796457249326874245 (0x4C3F556FB24635E21ED619EDAC89BE85)
Complete name : C:\How To Steal A Million 1966.AVC [US Transfer] [2xUkr,Eng] [Hurtom].
Format :
Format version : Version 4 / Version 2
File size : 2.10 GiB
Duration : 2 h 3 min
Overall bit rate : 2 436 kb/s
Encoded date : UTC 2020-06-23 06:23:08
Writing application : v22.0.0 ('At The End Of The World') 32-bit
Writing library : libebml v1.3.5 + v1.4.8
Attachments : how_to_steal_a_million_716_550.jpg
Video #1
ID : 1
Format : AVC
Format/Info : Advanced Video Codec
Format profile : [email protected]
Format settings, CABAC : Yes
Format settings, ReFrames : 12 frames
Codec ID : V_MPEG4/ISO/AVC
Duration : 2 h 3 min
Bit rate : 1 858 kb/s
Width : 1 092 pixels
Height : 464 pixels
Display aspect ratio : 2.35:1
Frame rate mode : Constant
Frame rate : 23.976 (24000/1001) FPS
Color space : YUV
Chroma subsampling : 4:2:0
Bit depth : 8 bits
Scan type : Progressive
Bits/(Pixel*Frame) : 0.153
Stream size : 1.60 GiB (76%)
Writing library : core 160 r3000 33f9e14
Encoding settings : cabac=1 / ref=12 / deblock=1:-3:-2 / analyse=0x3:0x133 / me=umh / subme=10 / psy=1 / psy_rd=1.00:0.00 / mixed_ref=1 / me_range=32 / chroma_me=1 / trellis=2 / 8x8dct=1 / cqm=0 / deadzone=21,11 / fast_pskip=0 / chroma_qp_offset=-2 / threads=6 / lookahead_threads=1 / sliced_threads=0 / nr=0 / decimate=1 / interlaced=0 / bluray_compat=0 / constrained_intra=0 / bframes=11 / b_pyramid=2 / b_adapt=2 / b_bias=0 / direct=1 / weightb=1 / open_gop=0 / weightp=2 / keyint=250 / keyint_min=23 / scenecut=40 / intra_refresh=0 / rc=crf / mbtree=0 / crf=19.3 / qcomp=0.65 / qpmin=0 / qpmax=69 / qpstep=4 / ip_ratio=1.40 / pb_ratio=1.30 / aq=3:0.90
Language : English
Default : Yes
Forced : No
Audio #2
ID : 2
Format : AC-3
Format/Info : Audio Coding 3
Mode extension : CM (complete main)
Format settings, Endianness : Big
Codec ID : A_AC3
Duration : 2 h 3 min
Bit rate mode : Constant
Bit rate : 192 kb/s
Channel(s) : 2 channels
Channel positions : Front: L R
Sampling rate : 48.0 kHz
Frame rate : 31.250 FPS (1536 spf)
Compression mode : Lossy
Delay relative to video : 1 s 60 ms
Stream size : 169 MiB (8%)
Title : DVO 1+1
Language : Ukrainian
Default : Yes
Forced : No
Audio #3
ID : 3
Format : AC-3
Format/Info : Audio Coding 3
Mode extension : CM (complete main)
Format settings, Endianness : Big
Codec ID : A_AC3
Duration : 2 h 3 min
Bit rate mode : Constant
Bit rate : 192 kb/s
Channel(s) : 2 channels
Channel positions : Front: L R
Sampling rate : 48.0 kHz
Frame rate : 31.250 FPS (1536 spf)
Compression mode : Lossy
Delay relative to video : 1 s 60 ms
Stream size : 169 MiB (8%)
Title : MVO ICTV
Language : Ukrainian
Default : No
Forced : No
Audio #4
ID : 4
Format : AC-3
Format/Info : Audio Coding 3
Mode extension : CM (complete main)
Format settings, Endianness : Big
Codec ID : A_AC3
Duration : 2 h 3 min
Bit rate mode : Constant
Bit rate : 192 kb/s
Channel(s) : 2 channels
Channel positions : Front: L R
Sampling rate : 48.0 kHz
Frame rate : 31.250 FPS (1536 spf)
Compression mode : Lossy
Stream size : 169 MiB (8%)
Title : ENG
Language : English
Default : No
Forced : No
Text #5
ID : 5
Format : UTF-8
Codec ID : S_TEXT/UTF8
Codec ID/Info : UTF-8 Plain Text
Duration : 2 h 0 min
Bit rate : 85 b/s
Count of elements : 1139
Stream size : 75.3 KiB (0%)
Default : Yes
Forced : No
Text #6
ID : 6
Format : UTF-8
Codec ID : S_TEXT/UTF8
Codec ID/Info : UTF-8 Plain Text
Duration : 2 h 1 min
Bit rate : 56 b/s
Count of elements : 1304
Stream size : 50.1 KiB (0%)
Language : English
Default : No
Forced : No
Величезні та найщиріші подяки:
Запис звуку з ТБ: 1+1 - Bohdan237, ICTV - Merdiff, Tanat13
Зведення: kryk-v.ya., karvai0
Українські саби: The_Marlboro
Українізація потсеру: rooster

Особиста оцінка: 10 - класика комедії! Одрі Хепберн - королева кінематографу! Озвучення від Нечепоренка+Поліщук - топ. Дивитися тільки в перекладі плюсів. Безцінний еталон.


Срібний реліз (на рейтинг впливає 50% завантаженого)
 Трекер:    Зареєстрований   

Завантажити / скачати фільм українською



відео для новачків



 Зареєстрований:   2020-06-23 09:43
 Розмір:   2.1 GB 
 Оцінка фільму:   9.8/10 (Голосів: 29)
   
bot 
робот


З нами з: 30.09.07
Востаннє: 26.05.05
Повідомлень: 24984

2020-04-25 20:47  
Тему перенесено з Фільми до форуму Анонси релізів


21jumpstreet

MakRA 
VIP


З нами з: 11.11.18
Востаннє: 07.07.20
Повідомлень: 1085

2020-04-25 22:24  
bot написано:
Реліз після показу 02.05 на плюсах

Нове озвучення буде?

21jumpstreet 
VIP


З нами з: 03.07.12
Востаннє: 06.07.20
Повідомлень: 1092

2020-04-26 02:38  
MakRA
Те саме. Запис буде кращим.

bot 
робот


З нами з: 30.09.07
Востаннє: 26.05.05
Повідомлень: 24984

2020-05-03 11:18  
Тему перенесено з Анонси релізів до форуму Фільми


21jumpstreet

W3223W 
Частий відвідувач


З нами з: 07.11.18
Востаннє: 05.07.20
Повідомлень: 47

2020-05-05 00:03  
Дякую дуже гарний фільм
Аркадій Дзиґа 
VIP


З нами з: 09.10.14
Востаннє: 07.07.20
Повідомлень: 422

2020-05-24 09:41  
Озвучення реально еталонне!!! Голос Володимира Нечепоренка на вагу золота!! Автору за реліз - дякую!
21jumpstreet 
VIP


З нами з: 03.07.12
Востаннє: 06.07.20
Повідомлень: 1092

2020-06-23 09:48  
Торент файл оновлено!
Замінив трансфер cze на US.

drtato 
Поважний учасник


З нами з: 28.10.10
Востаннє: 05.07.20
Повідомлень: 168

2020-06-23 10:55  
Дуже дякую за реліз. Одрі Хепберн - неймовірна !
+380954897458 
VIP


З нами з: 02.06.17
Востаннє: 07.07.20
Повідомлень: 884

2020-06-23 20:44  
drtato
Пітер О'Тул ще неймовірніший!

Ваш часовий пояс: GMT + 2 Години

Нова тема   Відповісти