Хлопець хоч куди / Just One of the Guys (1985) AVC Ukr/Eng | sub Ukr/Eng

Нові коментарі

Нова тема   Відповісти
Автор Повідомлення
Arsenfpu 
Відео Гуртом - фільмокрай
Відео Гуртом - фільмокрай


З нами з: 30.04.09
Востаннє: 10.08.20
Повідомлень: 7135

2020-04-25 18:45  
Хлопець хоч куди / Just One of the Guys (1985) AVC Ukr/Eng | sub Ukr/Eng

Хлопець хоч куди / Just One of the Guys (1985) AVC Ukr/Eng | sub Ukr/Eng


Жанр: комедія, романтичний
Країна: США



Кінокомпанія: Columbia Pictures, Summa Entertainment Group, Triton
Режисер: Ліза Готліб
Актори: Джойс Хайзер, Клейтон Ронер, Біллі Джейн, Тоні Хадсон, Вільям Забка, Лі Макклоскі, Шерілін Фен

Сюжет:
Террі Грифіт мріє стати журналісткою. У школі, де вона навчається, проводиться конкурс на кращу статтю в місцеву газету. Дівчина вважає, що її стаття буде визнана найкращою, оскільки написана хорошим стилем і на актуальну тему. Але перше місце і головний приз дістається не їй, а двом юнакам, які написали досить посередні статті. Террі пробирається в учительську, щоб знайти причину несправедливості членів журі. У стопці статей вона знаходить свою роботу і бачить, що на ній проставлено вищий бал. Випадково вона чує розмову між директором школи і одним з викладачів. Директор школи вважає, що Террі не може бути визнана переможницею конкурсу, тому що вона занадто гарна. Він вважає, що красиві дівчата придатні лише для роботи в модельному бізнесі і їх обмежений розум природним чином звужує коло відповідних для них професій. Террі обурена до глибини душі відвертим проявом дискримінації за ознакою статі. Дівчина вирішує довести, що чоловіки необґрунтовано вважають себе вищими істотами. Вона переодягається юнаком, переходить в іншу школу і представляє свою статтю на розгляд місцевих вчителів. Симпатичний новачок відразу стає об'єктом пильної уваги шкільних красунь...


Тривалість: 01:40:20
Якість:
Відео:
кодек:
розмір кадру: 1 024 х 576
бітрейт: 2 499 кб/с

Аудіо # 1:
мова: українська
переклад: багатоголосий закадровий
кодек: 2.0
бітрейт: 192 кб/с

Аудіо # 2:
мова: англійська
переклад: оригінал
кодек: 2.0
бітрейт: 224 кб/с

Субтитри:
мова: українська (окремо)
тип: програмні (м'які)
формат: *.srt

Субтитри:
мова: англійська
тип: програмні (м'які)
формат: *.srt
Скріншоти














Про файл
General
Unique ID : 53444547130065501274328267620179835336 (0x28350B9D401ABD13740034A1953CF9C8)
Complete name : C:\Just One of the Guys (1985) [Ukr,Eng] AVC [Hurtom].
Format :
Format version : Version 4 / Version 2
File size : 2.04 GiB
Duration : 1 h 40 min
Overall bit rate : 2 917 kb/s
Movie name : Хлопець хоч куди / Just One of the Guys (1985)
Encoded date : UTC 2020-04-25 15:07:13
Writing application : v21.0.0 ('Tardigrades Will Inherit The Earth') 32-bit
Writing library : libebml v1.3.5 + v1.4.8
Cover : Yes
Attachments : cover.jpg

Video
ID : 1
Format : AVC
Format/Info : Advanced Video Codec
Format profile : [email protected]
Format settings, CABAC : Yes
Format settings, ReFrames : 4 frames
Codec ID : V_MPEG4/ISO/AVC
Duration : 1 h 40 min
Bit rate : 2 499 kb/s
Width : 1 024 pixels
Height : 576 pixels
Display aspect ratio : 16:9
Frame rate mode : Constant
Frame rate : 23.976 (24000/1001) FPS
Color space : YUV
Chroma subsampling : 4:2:0
Bit depth : 8 bits
Scan type : Progressive
Bits/(Pixel*Frame) : 0.177
Stream size : 1.75 GiB (86%)
Writing library : core 157 r2935 545de2f
Encoding settings : cabac=1 / ref=3 / deblock=1:-1:-1 / analyse=0x3:0x113 / me=hex / subme=7 / psy=1 / psy_rd=1.00:0.15 / mixed_ref=1 / me_range=16 / chroma_me=1 / trellis=1 / 8x8dct=1 / cqm=0 / deadzone=21,11 / fast_pskip=1 / chroma_qp_offset=-3 / threads=12 / lookahead_threads=2 / sliced_threads=0 / nr=0 / decimate=1 / interlaced=0 / bluray_compat=0 / constrained_intra=0 / bframes=3 / b_pyramid=2 / b_adapt=1 / b_bias=0 / direct=1 / weightb=1 / open_gop=0 / weightp=2 / keyint=240 / keyint_min=23 / scenecut=40 / intra_refresh=0 / rc_lookahead=40 / rc=2pass / mbtree=1 / bitrate=2499 / ratetol=1.0 / qcomp=0.60 / qpmin=0 / qpmax=69 / qpstep=4 / cplxblur=20.0 / qblur=0.5 / ip_ratio=1.40 / aq=1:1.00
Default : Yes
Forced : No

Audio #1
ID : 2
Format : AC-3
Format/Info : Audio Coding 3
Mode extension : CM (complete main)
Format settings, Endianness : Big
Codec ID : A_AC3
Duration : 1 h 40 min
Bit rate mode : Constant
Bit rate : 192 kb/s
Channel(s) : 2 channels
Channel positions : Front: L R
Sampling rate : 48.0 kHz
Frame rate : 31.250 FPS (1536 spf)
Compression mode : Lossy
Stream size : 138 MiB (7%)
Title : Інтер
Language : Ukrainian
Default : Yes
Forced : Yes

Audio #2
ID : 3
Format : E-AC-3
Format/Info : Audio Coding 3
Format settings, Endianness : Big
Codec ID : A_EAC3
Duration : 1 h 40 min
Bit rate mode : Constant
Bit rate : 224 kb/s
Channel(s) : 2 channels
Channel positions : Front: L R
Sampling rate : 48.0 kHz
Frame rate : 187.500 FPS (256 spf)
Compression mode : Lossy
Stream size : 161 MiB (8%)
Language : English
Default : No
Forced : No

Text #1
ID : 4
Format : UTF-8
Codec ID : S_TEXT/UTF8
Codec ID/Info : UTF-8 Plain Text
Duration : 1 h 33 min
Bit rate : 64 b/s
Count of elements : 1281
Stream size : 44.2 KiB (0%)
Language : English
Default : Yes
Forced : No

Text #2
ID : 5
Format : UTF-8
Codec ID : S_TEXT/UTF8
Codec ID/Info : UTF-8 Plain Text
Duration : 1 h 36 min
Bit rate : 53 b/s
Count of elements : 1681
Stream size : 37.9 KiB (0%)
Language : English
Default : No
Forced : No
Джерело:
За матеріал для релізу дякую п.urij546724, Hulk1987
За українські субтитри дякую пану leicheman
Особиста оцінка: не дивився


Срібний реліз (на рейтинг впливає 50% завантаженого)
 Трекер:    Зареєстрований   

Завантажити / скачати фільм українською



відео для новачків



 Зареєстрований:   2020-04-25 18:45
 Розмір:   2.04 GB 
 Оцінка фільму:   9.8/10 (Голосів: 8)
   
Інші релізи
leicheman 
Відео Гуртом - фільмокрай
Відео Гуртом - фільмокрай


З нами з: 03.07.14
Востаннє: 10.08.20
Повідомлень: 5239

2020-04-25 20:33  
є укр. субтитри, додасте?
Arsenfpu 
Відео Гуртом - фільмокрай
Відео Гуртом - фільмокрай


З нами з: 30.04.09
Востаннє: 10.08.20
Повідомлень: 7135

2020-04-25 20:55  
leicheman
Може як посилання? Бо народ уже підкачав трохи...

dreamer 
VIP


З нами з: 10.05.08
Востаннє: 10.08.20
Повідомлень: 654

2020-07-13 12:32  
не погана стрічка..7 -8 з 10..
Ваш часовий пояс: GMT + 2 Години

Нова тема   Відповісти