Ведмідь / L'ours (1988) [Mastered in 4K] 1080p H.265 Ukr/Fre | Sub 2xUkr/Fre/Eng

Нові коментарі

Нова тема   Відповісти
Автор Повідомлення
Anonymous 







2020-04-25 17:14  
Ведмідь / L'ours (1988) [Mastered in 4K] 1080p H.265 Ukr/Fre | Sub 2xUkr/Fre/Eng

Ведмідь / L'ours (1988) [Mastered in 4K] 1080p H.265 Ukr/Fre | Sub 2xUkr/Fre/Eng


Жанр: пригодницький, сімейний, драма
Країна: Франція, США
Кінокомпанія: Price, Renn Productions
Режисер: Жан-Жак Анно
Актори: Ведмідь Барт, ведмежа Юк, Чекі Каріо, Джек Воллес, Андре Лакомб

Сюжет:
Чудова екранізація книги Джеймса Олівера Кервуда «Король Грізлі». 1885 рік. Серед прекрасних і величних пейзажів Британської Колумбії трапилася зворушлива історія про ведмежа, що втратило свою матір і залишилось саме, тоді як поряд нишпорять двоє мисливців. Доля зводить разом осиротілого малюка і величезного пораненого ведмедя. Непросто складаються їхні взаємини, але мисливці з рушницями й злими собаками виявляються куди страшнішими. Зіткнення людей і тварин неминуче ...

Тривалість: 01:36:40
Якість:

Відео:
кодек: H.265 (HEVC)
розмір кадру: 1920 x 816
бітрейт: 12 909 кб/с
бітова глибина: 10 біт

Увага! Перед завантаженням переконайтесь, що ваш пристрій відтворення (та/або ПЗ) підтримує H.265 (HEVC)

Аудіо # 1:
мова: українська
переклад: одноголосий закадровий | Slava Radyk
кодек: AC-3 2.0
бітрейт: 192 кб/с

Аудіо # 2:
мова: французька
переклад: оригінал
кодек: 5.1
бітрейт: 1510 кб/с

Субтитри # 1-2: (Full from DVD, Full by NemoInFire)
мова: українська
тип: програмні (м'які)
формат: *.srt

Субтитри # 3: (Full)
мова: французька
тип: програмні (м'які)
формат: *.srt

Субтитри # 4: (Full)
мова: англійська
тип: програмні (м'які)
формат: *.srt


Info
Код:
General
Unique ID                                : 107696541087642626772855807612565460313 (0x5105996E43DE8A969C919BA64DDA1559)
Complete name                            : L'ours (1988) 1080p H.265 [UKR_FRE] [Hurtom].
Format                                   :
Format version                           : Version 4
File size                                : 9.87 GiB
Duration                                 : 1 h 36 min
Overall bit rate                         : 14.6 Mb/s
Movie name                               : Ведмідь / L'ours (1988)
Encoded date                             : UTC 2020-09-26 11:29:19
Writing application                      : v20.0.0 ('I Am The Sun') 64-bit
Writing library                          : libebml v1.3.5 + v1.4.8
Cover                                    : Yes
Attachments                              : Cover.jpg

Video
ID                                       : 1
Format                                   : HEVC
Format/Info                              : High Efficiency Video Coding
Format profile                           : Main [email protected]@Main
Codec ID                                 : V_MPEGH/ISO/HEVC
Duration                                 : 1 h 36 min
Bit rate                                 : 12.9 Mb/s
Width                                    : 1 920 pixels
Height                                   : 816 pixels
Display aspect ratio                     : 2.35:1
Frame rate mode                          : Constant
Frame rate                               : 23.976 (24000/1001) FPS
Color space                              : YUV
Chroma subsampling                       : 4:2:0
Bit depth                                : 10 bits
Bits/(Pixel*Frame)                       : 0.344
Stream size                              : 8.72 GiB (88%)
Title                                    : Ведмідь / L'ours (1988)
Writing library                          : x265 3.3+2-gd9a7411cc:[Windows][MSVC 1925][64 bit] 10bit
Encoding settings                        : cpuid=1111039 / frame-threads=3 / numa-pools=8 / wpp / no-pmode / no-pme / no-psnr / no-ssim / log-level=2 / input-csp=1 / input-res=1920x816 / interlace=0 / total-frames=139075 / level-idc=0 / high-tier=1 / uhd-bd=0 / ref=5 / no-allow-non-conformance / no-repeat-headers / annexb / no-aud / no-hrd / info / hash=0 / no-temporal-layers / open-gop / min-keyint=23 / keyint=240 / gop-lookahead=0 / bframes=13 / b-adapt=2 / b-pyramid / bframe-bias=0 / rc-lookahead=60 / lookahead-slices=0 / scenecut=40 / hist-scenecut=0 / radl=0 / no-splice / no-intra-refresh / ctu=64 / min-cu-size=8 / rect / amp / max-tu-size=32 / tu-inter-depth=4 / tu-intra-depth=4 / limit-tu=1 / rdoq-level=2 / dynamic-rd=0.00 / no-ssim-rd / signhide / no-tskip / nr-intra=0 / nr-inter=0 / no-constrained-intra / no-strong-intra-smoothing / max-merge=5 / limit-refs=3 / no-limit-modes / me=3 / subme=7 / merange=57 / temporal-mvp / no-frame-dup / no-hme / weightp / weightb / no-analyze-src-pics / deblock=-3:-3 / no-sao / no-sao-non-deblock / rd=6 / selective-sao=0 / no-early-skip / rskip / no-fast-intra / no-tskip-fast / no-cu-lossless / b-intra / no-splitrd-skip / rdpenalty=0 / psy-rd=2.20 / psy-rdoq=1.10 / no-rd-refine / no-lossless / cbqpoffs=0 / crqpoffs=0 / rc=crf / crf=18.6 / qcomp=0.60 / qpstep=4 / stats-write=0 / stats-read=0 / ipratio=1.40 / pbratio=1.30 / aq-mode=2 / aq-strength=1.00 / no-cutree / zone-count=1 / zones: / start-frame=133574 / end-frame=139072 / qp=36 / no-strict-cbr / qg-size=32 / no-rc-grain / qpmax=69 / qpmin=0 / no-const-vbv / sar=1 / overscan=0 / videoformat=5 / range=0 / colorprim=2 / transfer=2 / colormatrix=2 / chromaloc=0 / display-window=0 / cll=0,0 / min-luma=0 / max-luma=1023 / log2-max-poc-lsb=8 / vui-timing-info / vui-hrd-info / slices=1 / no-opt-qp-pps / no-opt-ref-list-length-pps / no-multi-pass-opt-rps / scenecut-bias=0.00 / hist-threshold=0.01 / no-opt-cu-delta-qp / no-aq-motion / no-hdr10 / no-hdr10-opt / no-dhdr10-opt / no-idr-recovery-sei / analysis-reuse-level=0 / analysis-save-reuse-level=0 / analysis-load-reuse-level=0 / scale-factor=0 / refine-intra=0 / refine-inter=0 / refine-mv=1 / refine-ctu-distortion=0 / no-limit-sao / ctu-info=0 / no-lowpass-dct / refine-analysis-type=0 / copy-pic=1 / max-ausize-factor=1.0 / no-dynamic-refine / no-single-sei / no-hevc-aq / no-svt / no-field / qp-adaptation-range=1.00 / no-scenecut-aware-qpconformance-window-offsets / right=0 / bottom=0
Language                                 : English
Default                                  : Yes
Forced                                   : No

Audio #1
ID                                       : 2
Format                                   : AC-3
Format/Info                              : Audio Coding 3
Commercial name                          : Dolby Digital
Codec ID                                 : A_AC3
Duration                                 : 1 h 36 min
Bit rate mode                            : Constant
Bit rate                                 : 192 kb/s
Channel(s)                               : 2 channels
Channel layout                           : L R
Sampling rate                            : 48.0 kHz
Frame rate                               : 31.250 FPS (1536 SPF)
Compression mode                         : Lossy
Stream size                              : 132 MiB (1%)
Title                                    : / 2.0 Ch / 192 kbps / VO / Slava Radyk
Language                                 : Ukrainian
Service kind                             : Complete Main
Default                                  : Yes
Forced                                   : Yes

Audio #2
ID                                       : 3
Format                                   :
Format/Info                              : Digital Theater Systems
Codec ID                                 : A_DTS
Duration                                 : 1 h 36 min
Bit rate mode                            : Constant
Bit rate                                 : 1 509 kb/s
Channel(s)                               : 6 channels
Channel layout                           : C L R Ls Rs LFE
Sampling rate                            : 48.0 kHz
Frame rate                               : 93.750 FPS (512 SPF)
Bit depth                                : 16 bits
Compression mode                         : Lossy
Stream size                              : 1.02 GiB (10%)
Title                                    : / 5.1 Ch / 1509 kbps / Original
Language                                 : French
Default                                  : No
Forced                                   : No

Text #1
ID                                       : 4
Format                                   : UTF-8
Codec ID                                 : S_TEXT/UTF8
Codec ID/Info                            : UTF-8 Plain Text
Duration                                 : 1 h 32 min
Bit rate                                 : 5 b/s
Count of elements                        : 86
Stream size                              : 3.77 KiB (0%)
Title                                    : Full from DVD
Language                                 : Ukrainian
Default                                  : No
Forced                                   : No

Text #2
ID                                       : 5
Format                                   : UTF-8
Codec ID                                 : S_TEXT/UTF8
Codec ID/Info                            : UTF-8 Plain Text
Duration                                 : 1 h 32 min
Bit rate                                 : 5 b/s
Count of elements                        : 94
Stream size                              : 3.97 KiB (0%)
Title                                    : Full by NemoInFire
Language                                 : Ukrainian
Default                                  : No
Forced                                   : No

Text #3
ID                                       : 6
Format                                   : UTF-8
Codec ID                                 : S_TEXT/UTF8
Codec ID/Info                            : UTF-8 Plain Text
Duration                                 : 1 h 19 min
Bit rate                                 : 3 b/s
Count of elements                        : 103
Stream size                              : 2.17 KiB (0%)
Title                                    : Full
Language                                 : French
Default                                  : No
Forced                                   : No

Text #4
ID                                       : 7
Format                                   : UTF-8
Codec ID                                 : S_TEXT/UTF8
Codec ID/Info                            : UTF-8 Plain Text
Duration                                 : 1 h 16 min
Bit rate                                 : 4 b/s
Count of elements                        : 80
Stream size                              : 2.39 KiB (0%)
Title                                    : Full
Language                                 : English
Default                                  : No
Forced                                   : No

Menu
00:00:00.000                             : en:Youk seul au monde
00:08:10.323                             : en:Vers l'aventure
00:13:20.925                             : en:Les chasseurs sur la piste de Kaar
00:26:00.392                             : en:L'orphelin er l'eclope
00:34:10.757                             : en:A deux sous la lune
00:39:02.548                             : en:Comme pere et fils
00:44:47.976                             : en:Kaar, la belle, Youk et les champignons
00:52:38.321                             : en:Traque par la meute
01:02:15.982                             : en:La compagnie des hommes
01:13:27.403                             : en:La face a face
01:22:14.054                             : en:Youk de nouveau seul
01:25:43.805                             : en:Poursuivi par le puma
01:29:53.137                             : en:Une taniere dans l'immensite
01:32:53.651                             : en:Generique de fin
Світлини





Джерело: &
Особиста оцінка: 10 - без зайвих вагань рекомендую всім!


Авторський реліз (завантажувати можна без реєстрації)
 Трекер:    Зареєстрований   

Завантажити / скачати фільм українською



відео для новачків



 Зареєстрований:   2020-09-26 13:41
 Розмір:   9.87 GB 
 Оцінка фільму:   9.1/10 (Голосів: 14)
   
Інші релізи
   Ведмідь / L'ours (1988) AVC Ukr/Fre | Sub Ukr/Fre радик  7 / 0   2.15 GB   2020-09-24 18:15 
   Ведмідь / L'ours (1988) Fra/Eng | sub Ukr NemoInFire  1 / 0   1.88 GB   2012-01-20 19:39 
vash1 
VIP


З нами з: 16.03.16
Востаннє: 20.01.21
Повідомлень: 291

2020-04-25 18:50  
дуже вартісний фільм!
радик 
Поважний учасник


З нами з: 15.10.10
Востаннє: 20.01.21
Повідомлень: 208

2020-09-25 20:52  
українська доріжка (одногоголосий закадровий (Slava Radyk))
https://mega.nz/file/qLhTjShK#bcuCGCzfEI7WsnvVDJb_hwed28OOSvO0GeaR7LJsgDo

Anonymous 







2020-09-26 13:42  
Додано укр. доріжку в озвученні Slava Radyk та саби від пана NemoInFire
І-р 
Свій


З нами з: 21.07.16
Востаннє: 19.01.21
Повідомлень: 142

2020-09-26 21:19  
Фільм сімейний і, справді, хороший, але разом з дітьми дивитись як ведмідь "пече" ведмедицю не дуже комфортно.
Ваш часовий пояс: GMT + 2 Години

Нова тема   Відповісти