Чорний дощ / Black Rain (1989) AVC 2xUkr/Eng | Sub Eng

Нові коментарі

Нова тема   Відповісти
Автор Повідомлення
PatataFrita 
Свій


З нами з: 05.04.20
Востаннє: 08.07.20
Повідомлень: 80

2020-04-25 15:02  
Чорний дощ / Black Rain (1989) AVC 2xUkr/Eng | Sub Eng

Чорний дощ / Black Rain (1989) AVC 2xUkr/Eng | Sub Eng


Жанр: бойовик, трилер, кримінальний
Країна: США



Кінокомпанія: Paramount Pictures, Jaffe-Lansing, Pegasus Film Partners
Режисер: Рідлі Скотт / Ridley Scott
Актори: Майкл Даґлес / Michael Douglas, Енді Ґарсія / Andy Garcia, Кен Такакура / Ken Takakura, Кейт Кепшоу / Kate Capshaw, Юсаку Мацуда / Yûsaku Matsuda, Сіґеру Кояма / Shigeru Kôyama, Джон Спенсер / John Spencer, Гуц Ісімацу / Guts Ishimatsu, Юя Утіда / Yûya Uchida, Томісабуро Вакаяма / Tomisaburô Wakayama

Сюжет:
Двом нью-йоркським поліцейським потрапляє в руки безжалісний вбивця, що належить до японської мафії-якудза. Партнерам належить ескортувати злочинця в Осаку, де його чекає суд. Але на японській землі лиходієві вдається сховатися. Герої разом з японським детективом кидаються на його пошуки і виявляються втягнутими в криваву війну гангстерських кланів.


Тривалість: 02:05:18
Якість: AVC [0ptimus]
Відео:
кодек:
розмір кадру: 1024x426
бітрейт: 2060 кб/с

Аудіо # 1:
мова: українська
переклад: багатоголосий закадровий
кодек: 2.0
бітрейт: 192 кб/с

Аудіо # 2:
мова: українська
переклад: багатоголосий закадровий
кодек: 2.0
бітрейт: 192 кб/с

Аудіо # 3:
мова: англійська
переклад: оригінал
кодек: 5.1
бітрейт: 384 кб/с

Субтитри:
мова: англійська
тип: програмні (м'які)
формат: *.srt
Info
General
Unique ID : 53391544513124992878039066647970420523 (0x282AD6622C1EF9B1462E8F5473CF972B)
Complete name : D:\Black.Rain.1989...AVC [2xUkr] [Hurtom].
Format :
Format version : Version 4
File size : 2.48 GiB
Duration : 2 h 5 min
Overall bit rate : 2 830 kb/s
Movie name : Black.Rain.1989...AVCp [2xUkr] [Hurtom]
Encoded date : UTC 2020-04-25 11:51:39
Writing application : v45.0.0 ('Heaven in Pennies') 32-bit
Writing library : libebml v1.3.10 + v1.5.2

Video
ID : 1
Format : AVC
Format/Info : Advanced Video Codec
Format profile : [email protected]
Format settings : CABAC / 9 Ref Frames
Format settings, CABAC : Yes
Format settings, Reference : 9 frames
Codec ID : V_MPEG4/ISO/AVC
Duration : 2 h 5 min
Bit rate : 2 060 kb/s
Width : 1 024 pixels
Height : 426 pixels
Display aspect ratio : 2.40:1
Frame rate mode : Constant
Frame rate : 23.976 (23976/1000) FPS
Color space : YUV
Chroma subsampling : 4:2:0
Bit depth : 8 bits
Scan type : Progressive
Bits/(Pixel*Frame) : 0.197
Stream size : 1.80 GiB (73%)
Title : Rip by 0ptimus
Writing library : core 133 r2334 a3ac64b
Encoding settings : cabac=1 / ref=9 / deblock=1:-3:-3 / analyse=0x3:0x113 / me=umh / subme=10 / psy=1 / psy_rd=1.00:0.20 / mixed_ref=1 / me_range=32 / chroma_me=1 / trellis=2 / 8x8dct=1 / cqm=0 / deadzone=21,11 / fast_pskip=0 / chroma_qp_offset=-3 / threads=3 / lookahead_threads=1 / sliced_threads=0 / nr=0 / decimate=0 / interlaced=0 / bluray_compat=0 / constrained_intra=0 / bframes=10 / b_pyramid=2 / b_adapt=2 / b_bias=0 / direct=3 / weightb=1 / open_gop=0 / weightp=2 / keyint=240 / keyint_min=23 / scenecut=40 / intra_refresh=0 / rc_lookahead=40 / rc=2pass / mbtree=0 / bitrate=2060 / ratetol=1.0 / qcomp=0.60 / qpmin=0 / qpmax=69 / qpstep=4 / cplxblur=20.0 / qblur=0.5 / vbv_maxrate=50000 / vbv_bufsize=50000 / nal_hrd=none / ip_ratio=1.40 / pb_ratio=1.30 / aq=1:1.00
Language : English
Default : Yes
Forced : Yes

Audio #1
ID : 2
Format : AC-3
Format/Info : Audio Coding 3
Commercial name : Dolby Digital
Codec ID : A_AC3
Duration : 2 h 5 min
Bit rate mode : Constant
Bit rate : 192 kb/s
Channel(s) : 2 channels
Channel layout : L R
Sampling rate : 48.0 kHz
Frame rate : 31.250 FPS (1536 SPF)
Compression mode : Lossy
Stream size : 172 MiB (7%)
Title : HTH
Language : Ukrainian
Service kind : Complete Main
Default : Yes
Forced : No

Audio #2
ID : 3
Format : AC-3
Format/Info : Audio Coding 3
Commercial name : Dolby Digital
Codec ID : A_AC3
Duration : 2 h 5 min
Bit rate mode : Constant
Bit rate : 192 kb/s
Channel(s) : 2 channels
Channel layout : L R
Sampling rate : 48.0 kHz
Frame rate : 31.250 FPS (1536 SPF)
Compression mode : Lossy
Stream size : 172 MiB (7%)
Title : ICTV
Language : Ukrainian
Service kind : Complete Main
Default : No
Forced : No

Audio #3
ID : 4
Format : AC-3
Format/Info : Audio Coding 3
Commercial name : Dolby Digital
Codec ID : A_AC3
Duration : 2 h 5 min
Bit rate mode : Constant
Bit rate : 384 kb/s
Channel(s) : 6 channels
Channel layout : L R C LFE Ls Rs
Sampling rate : 48.0 kHz
Frame rate : 31.250 FPS (1536 SPF)
Compression mode : Lossy
Stream size : 344 MiB (14%)
Title : Original
Language : English
Service kind : Complete Main
Default : No
Forced : No

Text
ID : 5
Format : UTF-8
Codec ID : S_TEXT/UTF8
Codec ID/Info : UTF-8 Plain Text
Duration : 1 h 58 min
Bit rate : 40 b/s
Count of elements : 1096
Stream size : 35.1 KiB (0%)
Language : English
Default : No
Forced : No

Menu
00:00:00.000 : en:Opening Credits
00:02:45.832 : en:Nice Bike
00:05:06.306 : en:Internal Affairs
00:11:11.295 : en:Table Manners
00:14:44.174 : en:Freeze
00:18:08.087 : en:My Collar, My Case
00:20:48.580 : en:Dental Work
00:23:09.846 : en:Local Heat
00:31:24.299 : en:Observers
00:46:03.010 : en:Money to Burn
00:49:09.029 : en:Ties
00:53:48.642 : en:"What'd I Say"
00:55:31.119 : en:Foreigner
00:57:25.817 : en:The Last Bullfught
01:02:02.093 : en:Just You and Me
01:07:33.424 : en:Sequins
01:12:05.362 : en:Gray Areas
01:15:14.426 : en:The Switch
01:19:33.810 : en:Missing Plate
01:23:30.922 : en:Hot Lead
01:26:43.698 : en:Suspended
01:32:43.349 : en:On the Edge
01:36:35.372 : en:Black Rain
01:40:33.026 : en:Going for It
01:47:11.258 : en:The Yakuza Code
01:51:30.308 : en:Payback
01:57:21.451 : en:Honor
02:01:32.785 : en:End Credits
Скріншоти
Подяка п.РОМЕО за запис звуку до аудіо # 1 та п. omm за його синхронізацію;
п.МАКАРОННІК та п.olgaya за запис звуку та п.JACKUS за зведення аудіо # 2;
п.chapay за українізований постер
Особиста подяка пану denixx за надану матеріальну допомогу на підтримку цього і майбутніх релізів.

Джерело: &
Особиста оцінка: 10 - без зайвих вагань рекомендую всім!


Срібний реліз (на рейтинг впливає 50% завантаженого)
 Трекер:    Зареєстрований   

Завантажити / скачати фільм українською



відео для новачків



 Зареєстрований:   2020-04-25 15:02
 Розмір:   2.48 GB 
 Оцінка фільму:   9.7/10 (Голосів: 10)
   
Інші релізи
   Чорний дощ / Black Rain (1989) 1080p 2xUkr/Eng | Sub Eng PatataFrita  2 / 0   8.89 GB   2020-04-25 14:19 
   Чорний дощ / Black Rain (1989) Remux 1080p 2xUkr/Eng | Sub Eng kryk-v.ya.  2 / 0   25.66 GB   2019-06-11 19:33 
   Чорний дощ / Black Rain (1989) 720p 2xUkr/Eng | Sub Eng drop_plz  3 / 0   8.11 GB   2018-08-23 17:43 
   Чорний дощ / Black Rain (1989) 2xUkr omm  4 / 0   1.62 GB   2014-12-21 21:58 
   Чорний дощ / Black Rain (1989) Ukr | sub Eng JACKUS  2 / 0   2.18 GB   2010-11-13 20:26 
Ваш часовий пояс: GMT + 2 Години

Нова тема   Відповісти