Чорний дощ / Black Rain (1989) 1080p 2xUkr/Eng | Sub Eng

Нові коментарі

Нова тема   Відповісти
Автор Повідомлення
PatataFrita 
Свій


З нами з: 05.04.20
Востаннє: 08.09.20
Повідомлень: 83

2020-04-25 14:19  
Чорний дощ / Black Rain (1989) 1080p 2xUkr/Eng | Sub Eng

Чорний дощ / Black Rain (1989) 1080p 2xUkr/Eng | Sub Eng


Жанр: бойовик, трилер, кримінальний
Країна: США



Кінокомпанія: Paramount Pictures, Jaffe-Lansing, Pegasus Film Partners
Режисер: Рідлі Скотт / Ridley Scott
Актори: Майкл Даґлес / Michael Douglas, Енді Ґарсія / Andy Garcia, Кен Такакура / Ken Takakura, Кейт Кепшоу / Kate Capshaw, Юсаку Мацуда / Yûsaku Matsuda, Сіґеру Кояма / Shigeru Kôyama, Джон Спенсер / John Spencer, Гуц Ісімацу / Guts Ishimatsu, Юя Утіда / Yûya Uchida, Томісабуро Вакаяма / Tomisaburô Wakayama

Сюжет:
Двом нью-йоркським поліцейським потрапляє в руки безжалісний вбивця, що належить до японської мафії-якудза. Партнерам належить ескортувати злочинця в Осаку, де його чекає суд. Але на японській землі лиходієві вдається сховатися. Герої разом з японським детективом кидаються на його пошуки і виявляються втягнутими в криваву війну гангстерських кланів.


Тривалість: 02:05:18
Якість: 1080p
Відео:
кодек:
розмір кадру: 1920x800
бітрейт: 8270 кб/с

Аудіо # 1:
мова: українська
переклад: багатоголосий закадровий
кодек: 2.0
бітрейт: 192 кб/с

Аудіо # 2:
мова: українська
переклад: багатоголосий закадровий
кодек: 2.0
бітрейт: 192 кб/с

Аудіо # 3:
мова: англійська
переклад: оригінал
кодек: -ES 5.1
бітрейт: 1509 кб/с

Субтитри:
мова: англійська
тип: програмні (м'які)
формат: *.srt
Info
General
Unique ID : 135392002638734865348920210965775548587 (0x65DB8D1C2E31D861AF1F127E8A0880AB)
Complete name : D:\Black.Rain.1989...1080p [2xUkr] [Hurtom].
Format :
Format version : Version 4
File size : 8.89 GiB
Duration : 2 h 5 min
Overall bit rate : 10.2 Mb/s
Movie name : Chernyj.dogd.1989...1080p
Encoded date : UTC 2020-04-25 10:48:30
Writing application : v45.0.0 ('Heaven in Pennies') 32-bit
Writing library : libebml v1.3.10 + v1.5.2

Video
ID : 1
Format : AVC
Format/Info : Advanced Video Codec
Format profile : [email protected]
Format settings : CABAC / 4 Ref Frames
Format settings, CABAC : Yes
Format settings, Reference : 4 frames
Codec ID : V_MPEG4/ISO/AVC
Duration : 2 h 5 min
Bit rate : 8 270 kb/s
Width : 1 920 pixels
Height : 800 pixels
Display aspect ratio : 2.40:1
Frame rate mode : Constant
Frame rate : 23.976 (24000/1001) FPS
Color space : YUV
Chroma subsampling : 4:2:0
Bit depth : 8 bits
Scan type : Progressive
Bits/(Pixel*Frame) : 0.225
Stream size : 7.23 GiB (81%)
Writing library : core 125 r2200 999b753
Encoding settings : cabac=1 / ref=4 / deblock=1:-1:-1 / analyse=0x3:0x113 / me=umh / subme=9 / psy=1 / psy_rd=1.00:0.15 / mixed_ref=1 / me_range=24 / chroma_me=1 / trellis=2 / 8x8dct=1 / cqm=0 / deadzone=21,11 / fast_pskip=0 / chroma_qp_offset=-3 / threads=6 / lookahead_threads=1 / sliced_threads=0 / nr=0 / decimate=0 / interlaced=0 / bluray_compat=0 / constrained_intra=0 / bframes=6 / b_pyramid=2 / b_adapt=2 / b_bias=0 / direct=3 / weightb=1 / open_gop=0 / weightp=2 / keyint=230 / keyint_min=23 / scenecut=40 / intra_refresh=0 / rc=2pass / mbtree=0 / bitrate=8270 / ratetol=1.0 / qcomp=0.60 / qpmin=0 / qpmax=69 / qpstep=4 / cplxblur=20.0 / qblur=0.5 / ip_ratio=1.40 / pb_ratio=1.30 / aq=1:1.00
Language : English
Default : Yes
Forced : No

Audio #1
ID : 2
Format : AC-3
Format/Info : Audio Coding 3
Commercial name : Dolby Digital
Codec ID : A_AC3
Duration : 2 h 5 min
Bit rate mode : Constant
Bit rate : 192 kb/s
Channel(s) : 2 channels
Channel layout : L R
Sampling rate : 48.0 kHz
Frame rate : 31.250 FPS (1536 SPF)
Compression mode : Lossy
Stream size : 172 MiB (2%)
Title : HTH
Language : Ukrainian
Service kind : Complete Main
Default : Yes
Forced : No

Audio #2
ID : 3
Format : AC-3
Format/Info : Audio Coding 3
Commercial name : Dolby Digital
Codec ID : A_AC3
Duration : 2 h 5 min
Bit rate mode : Constant
Bit rate : 192 kb/s
Channel(s) : 2 channels
Channel layout : L R
Sampling rate : 48.0 kHz
Frame rate : 31.250 FPS (1536 SPF)
Compression mode : Lossy
Stream size : 172 MiB (2%)
Title : ICTV
Language : Ukrainian
Service kind : Complete Main
Default : No
Forced : No

Audio #3
ID : 4
Format : ES XXCH
Format/Info : Digital Theater Systems
Commercial name : -ES Discrete
Codec ID : A_DTS
Duration : 2 h 5 min
Bit rate mode : Constant
Bit rate : 1 509 kb/s
Channel(s) : 6 channels
Channel(s)_Original : 7 channels
ChannelLayout_Original : C L R Ls Rs Cs LFE
Sampling rate : 48.0 kHz
Frame rate : 93.750 FPS (512 SPF)
Bit depth : 24 bits
Compression mode : Lossy
Stream size : 1.32 GiB (15%)
Title : Original
Language : English
Default : No
Forced : No

Text
ID : 5
Format : UTF-8
Codec ID : S_TEXT/UTF8
Codec ID/Info : UTF-8 Plain Text
Duration : 1 h 58 min
Bit rate : 40 b/s
Count of elements : 1096
Stream size : 35.1 KiB (0%)
Language : English
Default : No
Forced : No
Скріншоти
Подяка п.РОМЕО за запис звуку до аудіо # 1 та п. omm за його синхронізацію;
п.МАКАРОННІК та п.olgaya за запис звуку та п.JACKUS за зведення аудіо # 2;
п.chapay за українізований постер
Особиста подяка пану denixx за надану матеріальну допомогу на підтримку цього і майбутніх релізів.

Джерело: &
Особиста оцінка: 10 - без зайвих вагань рекомендую всім!


Срібний реліз (на рейтинг впливає 50% завантаженого)
 Трекер:    Зареєстрований   

Завантажити / скачати фільм українською



відео для новачків



 Зареєстрований:   2020-04-25 14:19
 Розмір:   8.89 GB 
 Оцінка фільму:   10/10 (Голосів: 4)
   
Інші релізи
   Чорний дощ / Black Rain (1989) AVC 2xUkr/Eng | Sub Eng PatataFrita  3 / 0   2.48 GB   2020-04-25 15:02 
   Чорний дощ / Black Rain (1989) Remux 1080p 2xUkr/Eng | Sub Eng kryk-v.ya.  2 / 0   25.66 GB   2019-06-11 19:33 
   Чорний дощ / Black Rain (1989) 720p 2xUkr/Eng | Sub Eng drop_plz  3 / 0   8.11 GB   2018-08-23 17:43 
   Чорний дощ / Black Rain (1989) 2xUkr omm  5 / 2   1.62 GB   2014-12-21 21:58 
   Чорний дощ / Black Rain (1989) Ukr | sub Eng JACKUS  3 / 0   2.18 GB   2010-11-13 20:26 
PatataFrita 
Свій


З нами з: 05.04.20
Востаннє: 08.09.20
Повідомлень: 83

2020-04-25 14:20  
Дуже крутий фільм, рекомендую ознайомитися хто не бачив.
+380954897458 
VIP


З нами з: 02.06.17
Востаннє: 18.09.20
Повідомлень: 942

2020-04-25 23:16  
PatataFrita
Згоден! Чудова пісня Грегга Оллмана, що звучить на початку та у фінальних титрах, варта Оскара, чи Греммі.

Ваш часовий пояс: GMT + 2 Години

Нова тема   Відповісти