Кара небесна / Switch (1991) AVC 2xUkr/Eng | Sub Eng

Нові коментарі

Нова тема   Відповісти
Автор Повідомлення
21jumpstreet 
VIP


З нами з: 03.07.12
Востаннє: 05.07.20
Повідомлень: 1091

2020-04-25 13:57  
Кара небесна / Switch (1991) AVC 2xUkr/Eng | Sub Eng


Кара небесна / Switch (1991) AVC 2xUkr/Eng | Sub Eng


Жанр: комедія
Країна: США



Кінокомпанія: Beco Films, Cinema Plus, Home Box Office (HBO)
Режисер: Блейк Едвардс
Актори: Еллен Баркін, Джиммі Смітс, ДжоБет Вільямс, Лоррейн Бракко, Тоні Робертс, Перрі Кінг, Брюс Пейн, Лізетт Ентоні

Сюжет:
Одного разу вранці відомий рекламний агент Стів Брукс, прокинувшись і відправившись у ванну, виявив у дзеркалі відображення ... жіночого обличчя і тіла. Потім з'ясувалося, що напередодні увечері з Бруксом розправилися три його жінки що ненавиділи його, але, згідно з карою небесною, герой повернувся на Землю в жіночому вигляді, щоб випробувати себе в шкірі і в плоті тих, кого він все життя зневажав. Відтепер Стів змушений бути сексапільної блондинкою Амандою, нібито зведеною сестрою самого себе, і відправитися в чоловічий світ - немов у Пекло, а до того ж повинен домогтися прихильності якої-небудь з жінок.


Тривалість: 01:43:12
Якість:
Відео:
кодек:
розмір кадру: 1024 х 576
бітрейт: 3010 кб/с

Аудіо # 1:
мова: українська
переклад: двоголосий закадровий
кодек: 2.0
бітрейт: 192 кб/с
Ролі озвучили: Ярослав Чорненький та Наталія Задніпровська
Примітка: в цьому озвученні не перекладено три фрази з лайками. На ці фрази накладено озвучення з нового каналу

Аудіо # 2:
мова: українська
переклад: двоголосий закадровий
кодек: 2.0
бітрейт: 192 кб/с
Ролі озвучили: Юрій Ребрик та один жіночий

Аудіо # 3:
мова: англійська
переклад: оригінал
кодек: 2.0
бітрейт: 192 кб/с
Скріншоти



Info
C:\Switch (1991) AVC [2xUkr,Eng] [Hurtom].
General
Unique ID : 70832636671580205066019168818315772052 (0x3549DE9E2497C3F1105036909861C094)
Complete name : C:\Switch (1991) AVC [2xUkr,Eng] [Hurtom].
Format :
Format version : Version 4 / Version 2
File size : 2.59 GiB
Duration : 1 h 43 min
Overall bit rate : 3 588 kb/s
Movie name : Switch (1991) AVC [2xUkr,Eng] [Hurtom]
Encoded date : UTC 2020-04-26 07:14:45
Writing application : v22.0.0 ('At The End Of The World') 32-bit
Writing library : libebml v1.3.5 + v1.4.8
Video #1
ID : 1
Format : AVC
Format/Info : Advanced Video Codec
Format profile : [email protected]
Format settings, CABAC : Yes
Format settings, ReFrames : 9 frames
Codec ID : V_MPEG4/ISO/AVC
Duration : 1 h 43 min
Bit rate : 3 010 kb/s
Width : 1 024 pixels
Height : 576 pixels
Display aspect ratio : 16:9
Frame rate mode : Constant
Frame rate : 23.976 (24000/1001) FPS
Color space : YUV
Chroma subsampling : 4:2:0
Bit depth : 8 bits
Scan type : Progressive
Bits/(Pixel*Frame) : 0.213
Stream size : 2.17 GiB (84%)
Writing library : core 157 r2935 545de2f
Encoding settings : cabac=1 / ref=9 / deblock=1:-2:-2 / analyse=0x3:0x113 / me=umh / subme=11 / psy=1 / psy_rd=1.00:0.15 / mixed_ref=1 / me_range=32 / chroma_me=1 / trellis=2 / 8x8dct=1 / cqm=0 / deadzone=21,11 / fast_pskip=0 / chroma_qp_offset=-3 / threads=6 / lookahead_threads=1 / sliced_threads=0 / nr=0 / decimate=1 / interlaced=0 / bluray_compat=0 / constrained_intra=0 / bframes=8 / b_pyramid=2 / b_adapt=2 / b_bias=0 / direct=1 / weightb=1 / open_gop=0 / weightp=2 / keyint=230 / keyint_min=23 / scenecut=40 / intra_refresh=0 / rc_lookahead=40 / rc=crf / mbtree=1 / crf=18.9 / qcomp=0.60 / qpmin=0 / qpmax=69 / qpstep=4 / vbv_maxrate=50000 / vbv_bufsize=62500 / crf_max=0.0 / nal_hrd=none / filler=0 / ip_ratio=1.40 / aq=1:1.00
Language : English
Default : Yes
Forced : No
Audio #2
ID : 2
Format : AC-3
Format/Info : Audio Coding 3
Mode extension : CM (complete main)
Format settings, Endianness : Big
Codec ID : A_AC3
Duration : 1 h 43 min
Bit rate mode : Constant
Bit rate : 192 kb/s
Channel(s) : 2 channels
Channel positions : Front: L R
Sampling rate : 48.0 kHz
Frame rate : 31.250 FPS (1536 spf)
Compression mode : Lossy
Stream size : 142 MiB (5%)
Title : Switch (1991) AVC DVO 1+1
Language : Ukrainian
Default : Yes
Forced : Yes
Audio #3
ID : 3
Format : AC-3
Format/Info : Audio Coding 3
Mode extension : CM (complete main)
Format settings, Endianness : Big
Codec ID : A_AC3
Duration : 1 h 43 min
Bit rate mode : Constant
Bit rate : 192 kb/s
Channel(s) : 2 channels
Channel positions : Front: L R
Sampling rate : 48.0 kHz
Frame rate : 31.250 FPS (1536 spf)
Compression mode : Lossy
Stream size : 142 MiB (5%)
Title : Switch (1991) AVC DVO NOVY
Language : Ukrainian
Default : No
Forced : No
Audio #4
ID : 4
Format : AC-3
Format/Info : Audio Coding 3
Mode extension : CM (complete main)
Format settings, Endianness : Big
Codec ID : A_AC3
Duration : 1 h 43 min
Bit rate mode : Constant
Bit rate : 192 kb/s
Channel(s) : 2 channels
Channel positions : Front: L R
Sampling rate : 48.0 kHz
Frame rate : 31.250 FPS (1536 spf)
Compression mode : Lossy
Stream size : 142 MiB (5%)
Title : original
Language : English
Default : No
Forced : No
Text #5
ID : 5
Format : UTF-8
Codec ID : S_TEXT/UTF8
Codec ID/Info : UTF-8 Plain Text
Duration : 1 h 42 min
Bit rate : 68 b/s
Count of elements : 1875
Stream size : 51.3 KiB (0%)
Title : английские
Language : English
Default : No
Forced : No
Величезні та найщиріші подяки:
Запис звуку з ТБ: 1+1 - leicheman, Новий канал - NemoinFire
Зведення обох доріжок і допомога: kryk-v.ya., leicheman





Срібний реліз (на рейтинг впливає 50% завантаженого)
 Трекер:    Зареєстрований   

Завантажити / скачати фільм українською



відео для новачків



 Зареєстрований:   2020-04-26 10:47
 Розмір:   2.59 GB 
 Оцінка фільму:   8.6/10 (Голосів: 8)
   
Інші релізи
   Кара небесна / Switch (1991) Remux 1080p 2xUkr/Eng | Sub Eng staf777  2 / 0   25.86 GB   2020-05-03 17:09 
   Кара небесна / Switch (1991) 720p 2xUkr/Eng | Sub Eng staf777  1 / 0   4.94 GB   2020-05-03 14:21 
   Кара небесна / Switch (1991) 1080p Ukr/Eng | Sub Eng Pegass  1 / 0   9.64 GB   2018-06-13 20:44 
   Кара небесна / Switch (1991) Ukr/Eng | sub Eng JACKUS  3 / 0   1.75 GB   2010-10-02 14:55 
bot 
робот


З нами з: 30.09.07
Востаннє: 26.05.05
Повідомлень: 24971

2020-04-25 13:58  
Тему перенесено з Фільми до форуму Анонси релізів


21jumpstreet

leicheman 
Відео Гуртом - фільмокрай
Відео Гуртом - фільмокрай


З нами з: 03.07.14
Востаннє: 05.07.20
Повідомлень: 5097

2020-04-25 14:07  
21jumpstreet написано:

є ж блюрей

21jumpstreet 
VIP


З нами з: 03.07.12
Востаннє: 05.07.20
Повідомлень: 1091

2020-04-25 14:09  
leicheman
Є, але меншого розміру не знайшов
тільки 720 та ремукс
Якщо знайдете бд з меншим розміром ~1.45 ГБ, скиньте в пп

bot 
робот


З нами з: 30.09.07
Востаннє: 26.05.05
Повідомлень: 24971

2020-04-26 10:46  
Тему перенесено з Анонси релізів до форуму Фільми


21jumpstreet

dreamer 
VIP


З нами з: 10.05.08
Востаннє: 03.07.20
Повідомлень: 645

2020-04-27 09:48  
гарна стрічка...кілька разів дивився...тема не нова але ідея зрозуміла.10 з 10
Lil`Antoni 
VIP


З нами з: 25.02.12
Востаннє: 30.06.20
Повідомлень: 837

2020-04-27 14:43  
Підкажіть який переклад краще дивитися ?
21jumpstreet 
VIP


З нами з: 03.07.12
Востаннє: 05.07.20
Повідомлень: 1091

2020-04-27 14:46  
Lil`Antoni
Плюси

Ваш часовий пояс: GMT + 2 Години

Нова тема   Відповісти