Джуніор / Junior (1994) AVC 2xUkr/Eng | Sub Eng

Нові коментарі

Нова тема   Відповісти
Автор Повідомлення
21jumpstreet 
VIP


З нами з: 03.07.12
Востаннє: 04.07.20
Повідомлень: 1091

2020-04-25 13:54  
Джуніор / Junior (1994) AVC 2xUkr/Eng | Sub Eng


Джуніор / Junior (1994) AVC 2xUkr/Eng | Sub Eng


Жанр: комедія, фантастика, мелодрама
Країна: США



Кінокомпанія: Universal Pictures
Режисер: Айвен Райтман
Актори: Арнольд Шварценеґґер / Arnold Schwarzenegger, Денні ДеВіто / Danny DeVito, Емма Томпсон / Emma Thompson, Френк Ланджелла / Frank Langella, Памела Рід / Pamela Reed та інші

Сюжет:
Для того, щоб довести силу винайдених пігулок проти викиднів у вагітних жінок, одному з лікарів, в житті - боязкій і сором'язливій людині - належить стати...першим в світі вагітним чоловіком!


Тривалість: 01:49:57
Якість:
Відео:
кодек:
розмір кадру: 1152x624
бітрейт: 4223 кб/с

Аудіо # 1:
мова: українська
переклад: багатоголосий закадровий
кодек: 2.0
бітрейт: 192 кб/с
Ролі озвучили: Євген Пашин, Лесь та Наталія Задніпровські

Аудіо # 2:
мова: українська
переклад: двоголосий закадровий
кодек: 2.0
бітрейт: 192 кб/с
Ролі озвучили: Андрій Твердак та Людмила Ардельян

Аудіо # 3:
мова: англійська
переклад: оригінал
кодек: 5.1
бітрейт: 448 кб/с
Скріншоти



Info
C:\Новая папка\Junior (1994) AVC [2xUkr,Eng] [Hurtom].
General
Unique ID : 211700606492980876622532348768016383979 (0x9F440DC12EA763B026B0FEBE82B3BFEB)
Complete name : C:\Новая папка\Junior (1994) AVC [2xUkr,Eng] [Hurtom].
Format :
Format version : Version 4 / Version 2
File size : 3.88 GiB
Duration : 1 h 49 min
Overall bit rate : 5 057 kb/s
Movie name : Джуніор / Junior (1994)
Encoded date : UTC 2020-04-28 05:43:22
Writing application : v22.0.0 ('At The End Of The World') 32-bit
Writing library : libebml v1.3.5 + v1.4.8
Attachments : Junior.jpg
Video #1
ID : 1
Format : AVC
Format/Info : Advanced Video Codec
Format profile : [email protected]
Format settings, CABAC : Yes
Format settings, ReFrames : 11 frames
Codec ID : V_MPEG4/ISO/AVC
Duration : 1 h 49 min
Bit rate : 4 223 kb/s
Width : 1 152 pixels
Height : 624 pixels
Display aspect ratio : 1.85:1
Frame rate mode : Constant
Frame rate : 23.976 FPS
Color space : YUV
Chroma subsampling : 4:2:0
Bit depth : 8 bits
Scan type : Progressive
Bits/(Pixel*Frame) : 0.245
Stream size : 3.24 GiB (84%)
Title : Junior
Writing library : core 130 r2273 b3065e6
Encoding settings : cabac=1 / ref=11 / deblock=1:-3:-3 / analyse=0x3:0x113 / me=umh / subme=9 / psy=1 / psy_rd=1.05:0.15 / mixed_ref=1 / me_range=32 / chroma_me=1 / trellis=2 / 8x8dct=1 / cqm=0 / deadzone=21,11 / fast_pskip=0 / chroma_qp_offset=-3 / threads=6 / lookahead_threads=1 / sliced_threads=0 / nr=0 / decimate=0 / interlaced=0 / bluray_compat=0 / constrained_intra=0 / bframes=11 / b_pyramid=2 / b_adapt=2 / b_bias=0 / direct=3 / weightb=1 / open_gop=0 / weightp=2 / keyint=250 / keyint_min=23 / scenecut=40 / intra_refresh=0 / rc_lookahead=60 / rc=2pass / mbtree=0 / bitrate=4223 / ratetol=1.0 / qcomp=0.70 / qpmin=0 / qpmax=69 / qpstep=4 / cplxblur=20.0 / qblur=0.5 / vbv_maxrate=50000 / vbv_bufsize=62500 / nal_hrd=none / ip_ratio=1.40 / pb_ratio=1.30 / aq=2:0.80
Language : English
Default : Yes
Forced : No
Audio #2
ID : 2
Format : AC-3
Format/Info : Audio Coding 3
Mode extension : CM (complete main)
Format settings, Endianness : Big
Codec ID : A_AC3
Duration : 1 h 49 min
Bit rate mode : Constant
Bit rate : 192 kb/s
Channel(s) : 2 channels
Channel positions : Front: L R
Sampling rate : 48.0 kHz
Frame rate : 31.250 FPS (1536 spf)
Compression mode : Lossy
Stream size : 151 MiB (4%)
Title : Junior (1994) MVO 1+1
Language : Ukrainian
Default : Yes
Forced : Yes
Audio #3
ID : 3
Format : AC-3
Format/Info : Audio Coding 3
Mode extension : CM (complete main)
Format settings, Endianness : Big
Codec ID : A_AC3
Duration : 1 h 49 min
Bit rate mode : Constant
Bit rate : 192 kb/s
Channel(s) : 2 channels
Channel positions : Front: L R
Sampling rate : 48.0 kHz
Frame rate : 31.250 FPS (1536 spf)
Compression mode : Lossy
Stream size : 150 MiB (4%)
Title : Junior (1994) DVO NOVY
Language : Ukrainian
Default : No
Forced : No
Audio #4
ID : 4
Format : AC-3
Format/Info : Audio Coding 3
Mode extension : CM (complete main)
Format settings, Endianness : Big
Codec ID : A_AC3
Duration : 1 h 49 min
Bit rate mode : Constant
Bit rate : 448 kb/s
Channel(s) : 6 channels
Channel positions : Front: L C R, Side: L R, LFE
Sampling rate : 48.0 kHz
Frame rate : 31.250 FPS (1536 spf)
Compression mode : Lossy
Stream size : 352 MiB (9%)
Title : Junior (1994) ENG
Language : English
Default : No
Forced : No
Text #5
ID : 5
Format : UTF-8
Codec ID : S_TEXT/UTF8
Codec ID/Info : UTF-8 Plain Text
Duration : 1 h 43 min
Bit rate : 62 b/s
Count of elements : 1391
Stream size : 47.0 KiB (0%)
Language : English
Default : No
Forced : No
Величезні та найщиріші подяки:
Запис звуку з ТБ: 1+1 - tilda4334, xslim, Новий канал - NemoinFire
Зведення обох доріжок: kryk-v.ya., igor911





Срібний реліз (на рейтинг впливає 50% завантаженого)
 Трекер:    Зареєстрований   

Завантажити / скачати фільм українською



відео для новачків



 Зареєстрований:   2020-04-28 09:08
 Розмір:   3.88 GB 
 Оцінка фільму:   9.7/10 (Голосів: 6)
   
Інші релізи
   Джуніор / Junior (1994) 720р 2xUkr/Eng | Sub Eng staf777  1 / 0   6.84 GB   2020-04-29 17:52 
   Джуніор / Junior (1994) 1080р 2xUkr/Eng | Sub Eng omm  2 / 0   12.37 GB   2020-04-27 22:51 
   Джуніор / Junior (1994) Ukr/Eng Arsenfpu  4 / 0   2.18 GB   2016-01-13 16:02 
   Джуніор / Junior (1994) 1080р Ukr/Eng | Sub Eng igor911  1 / 0   7.27 GB   2013-07-14 02:24 
bot 
робот


З нами з: 30.09.07
Востаннє: 26.05.05
Повідомлень: 24931

2020-04-25 13:54  
Тему перенесено з Фільми до форуму Анонси релізів


21jumpstreet

igor911 
Модератор відео


З нами з: 18.01.08
Востаннє: 04.07.20
Повідомлень: 14852

2020-04-25 17:53  
Правила розділу Анонси релізів написано:
2. Анонс повинен мати повну назву за правилами відповідного розділу
3. Опис необов'язковий, але необхідно вказати посилання на imdb та приблизну дату релізу. Якщо це запис з ТБ, потрібно також вказати телеканал

bot 
робот


З нами з: 30.09.07
Востаннє: 26.05.05
Повідомлень: 24931

2020-04-28 09:02  
Тему перенесено з Анонси релізів до форуму Фільми


21jumpstreet

qwasasqw 
VIP


З нами з: 01.01.11
Востаннє: 04.07.20
Повідомлень: 995

2020-04-28 10:24  
Дякую за реліз...Фільм далеко не найкращий у фільмографії Шварца, але з озвученням 1+1 його варто переглянути...
IRONHIDE 
VIP


З нами з: 06.08.10
Востаннє: 03.07.20
Повідомлень: 278

2020-04-28 12:51  
Комедія дитинства! 8/10
Ваш часовий пояс: GMT + 2 Години

Нова тема   Відповісти