Незламний: шлях до спокути / Unbroken: Path to Redemption (2018) AVC Ukr/Eng | Sub Ukr/Eng

Нові коментарі

Нова тема   Відповісти
Автор Повідомлення
Anonymous 







2020-04-24 21:50  
Незламний: шлях до спокути / Unbroken: Path to Redemption (2018) AVC Ukr/Eng | Sub Ukr/Eng

Незламний: шлях до спокути / Unbroken: Path to Redemption (2018) AVC Ukr/Eng | Sub Ukr/Eng

Жанр: драма, біографічний
Країна: США



Кінокомпанія: Universal 1440 Entertainment, Matt Baer Films
Режисер: Гарольд Кронк
Актори: Семюель К. Хант, Меррітт Паттерсон, Віл Грехем, Лакі Афарату, Вінченцо Амато, Дерек Брендон, Елісон Брайант, Ендрю Колдуел, Ванесса Бел Келловей та інші

Сюжет:
Луї Замперіні, спортсмен та герой війни, який потрапив у полон до японців, повертається до Каліфорнії, де на нього чекає боротьба з посттравматичним синдромом. Героя переслідують нічні жахи, смута та депресія. Дружина переконує чоловіка вступити до евангілізійної кампанії Біллі Грема...


Реліз без реклами


Тривалість: 01:38:30
Якість: AVC

Відео:
кодек:
розмір кадру: 1024 x 576
бітрейт: ~3127 кб/с

Аудіо # 1:
мова: українська
переклад: багатоголосий закадровий | DniproFilm
кодек: 5.1
бітрейт: 384 кб/с
Підтримати українське озвучення
Для студії DniproFilm дуже важлива популярність, чим популярнішою буде студія, тим більшу кількість українського озвучення до нових фільмів та серіалів в неї замовлятимуть. Тому прохання до не байдужих підписуватися на їх телеграм канал
Аудіо # 2:
мова: англійська
переклад: оригінал
кодек: 5.1
бітрейт: 448 кб/с

Субтитри # 1-2: (Forced, Full)
мова: українська
тип: пререндерні
формат: *.pgs

Субтитри # 3-4: (Full, SDH)
мова: англійська
тип: пререндерні
формат: *.pgs

Збережено оригінальні розділи, як на Blu-ray


Info
Код:
General
Complete name                            : Unbroken Path to Redemption (2018) AVC [ukr, eng] [Video_Hurtom].
Format                                   :
Format version                           : Version 4
File size                                : 2.74 GiB
Duration                                 : 1 h 38 min
Overall bit rate                         : 3 979 kb/s
Movie name                               : Незламний: шлях до спокути / Unbroken: Path to Redemption (2018)
Encoded date                             : UTC 2020-04-24 09:10:37
Writing application                      : v30.1.0 ('Forever And More') 64-bit
Writing library                          : libebml v1.3.6 + v1.4.9
Cover                                    : Yes
Attachments                              : cover.jpg

Video
ID                                       : 1
Format                                   : AVC
Format/Info                              : Advanced Video Codec
Format profile                           : [email protected]
Format settings                          : CABAC / 10 Ref Frames
Format settings, CABAC                   : Yes
Format settings, RefFrames               : 10 frames
Codec ID                                 : V_MPEG4/ISO/AVC
Duration                                 : 1 h 38 min
Bit rate                                 : 3 127 kb/s
Width                                    : 1 024 pixels
Height                                   : 576 pixels
Display aspect ratio                     : 16:9
Frame rate mode                          : Constant
Frame rate                               : 23.976 (24000/1001) FPS
Color space                              : YUV
Chroma subsampling                       : 4:2:0
Bit depth                                : 8 bits
Scan type                                : Progressive
Bits/(Pixel*Frame)                       : 0.221
Stream size                              : 2.15 GiB (78%)
Title                                    : #stillet
Writing library                          : core 152 r2851bm ba24899
Encoding settings                        : cabac=1 / ref=10 / deblock=1:-3:-3 / analyse=0x3:0x113 / me=umh / subme=11 / psy=1 / psy_rd=1.00:0.15 / mixed_ref=1 / me_range=32 / chroma_me=1 / trellis=2 / 8x8dct=1 / cqm=0 / deadzone=21,11 / fast_pskip=0 / chroma_qp_offset=-3 / threads=8 / lookahead_threads=3 / sliced_threads=0 / nr=0 / decimate=0 / interlaced=0 / bluray_compat=0 / constrained_intra=0 / bframes=11 / b_pyramid=2 / b_adapt=2 / b_bias=0 / direct=3 / weightb=1 / open_gop=0 / weightp=2 / keyint=240 / keyint_min=23 / scenecut=40 / intra_refresh=0 / rc=2pass / mbtree=0 / bitrate=3127 / ratetol=1.0 / qcomp=0.60 / qpmin=0 / qpmax=69 / qpstep=4 / cplxblur=20.0 / qblur=0.5 / ip_ratio=1.40 / pb_ratio=1.30 / aq=1:1.00
Language                                 : English
Default                                  : Yes
Forced                                   : No

Audio #1
ID                                       : 2
Format                                   : AC-3
Format/Info                              : Audio Coding 3
Commercial name                          : Dolby Digital
Codec ID                                 : A_AC3
Duration                                 : 1 h 38 min
Bit rate mode                            : Constant
Bit rate                                 : 384 kb/s
Channel(s)                               : 6 channels
Channel layout                           : L R C LFE Ls Rs
Sampling rate                            : 48.0 kHz
Frame rate                               : 31.250 FPS (1536 SPF)
Bit depth                                : 16 bits
Compression mode                         : Lossy
Stream size                              : 270 MiB (10%)
Title                                    : 5.1 | 384
Language                                 : Ukrainian
Service kind                             : Complete Main
Default                                  : Yes
Forced                                   : No

Audio #2
ID                                       : 3
Format                                   : AC-3
Format/Info                              : Audio Coding 3
Commercial name                          : Dolby Digital
Codec ID                                 : A_AC3
Duration                                 : 1 h 38 min
Bit rate mode                            : Constant
Bit rate                                 : 448 kb/s
Channel(s)                               : 6 channels
Channel layout                           : L R C LFE Ls Rs
Sampling rate                            : 48.0 kHz
Frame rate                               : 31.250 FPS (1536 SPF)
Bit depth                                : 16 bits
Compression mode                         : Lossy
Stream size                              : 316 MiB (11%)
Title                                    : 5.1 | 448
Language                                 : English
Service kind                             : Complete Main
Default                                  : No
Forced                                   : No

Text #1
ID                                       : 4
Format                                   : PGS
Muxing mode                              : zlib
Codec ID                                 : S_HDMV/PGS
Codec ID/Info                            : Picture based subtitle format used on BDs/HD-DVDs
Duration                                 : 1 h 37 min
Bit rate                                 : 2 335 b/s
Count of elements                        : 168
Stream size                              : 1.63 MiB (0%)
Title                                    : Forced
Language                                 : Ukrainian
Default                                  : Yes
Forced                                   : No

Text #2
ID                                       : 5
Format                                   : PGS
Muxing mode                              : zlib
Codec ID                                 : S_HDMV/PGS
Codec ID/Info                            : Picture based subtitle format used on BDs/HD-DVDs
Duration                                 : 1 h 37 min
Bit rate                                 : 25.2 kb/s
Count of elements                        : 2460
Stream size                              : 17.5 MiB (1%)
Title                                    : Full
Language                                 : Ukrainian
Default                                  : No
Forced                                   : No

Text #3
ID                                       : 6
Format                                   : PGS
Muxing mode                              : zlib
Codec ID                                 : S_HDMV/PGS
Codec ID/Info                            : Picture based subtitle format used on BDs/HD-DVDs
Duration                                 : 1 h 36 min
Bit rate                                 : 25.3 kb/s
Count of elements                        : 2290
Stream size                              : 17.5 MiB (1%)
Title                                    : Full
Language                                 : English
Default                                  : No
Forced                                   : No

Text #4
ID                                       : 7
Format                                   : PGS
Muxing mode                              : zlib
Codec ID                                 : S_HDMV/PGS
Codec ID/Info                            : Picture based subtitle format used on BDs/HD-DVDs
Duration                                 : 1 h 36 min
Bit rate                                 : 41.5 kb/s
Count of elements                        : 2759
Stream size                              : 28.6 MiB (1%)
Title                                    : SDH
Language                                 : English
Default                                  : No
Forced                                   : No

Menu
00:00:00.000                             : en:Chapter 1
00:05:19.611                             : en:Chapter 2
00:09:29.277                             : en:Chapter 3
00:13:23.094                             : en:Chapter 4
00:17:29.590                             : en:Chapter 5
00:23:11.181                             : en:Chapter 6
00:29:01.323                             : en:Chapter 7
00:33:35.889                             : en:Chapter 8
00:37:28.371                             : en:Chapter 9
00:40:52.116                             : en:Chapter 10
00:43:27.980                             : en:Chapter 11
00:50:56.637                             : en:Chapter 12
00:56:45.319                             : en:Chapter 13
01:00:17.697                             : en:Chapter 14
01:07:33.466                             : en:Chapter 15
01:15:19.432                             : en:Chapter 16
01:20:07.261                             : en:Chapter 17
01:27:16.857                             : en:Chapter 18
01:31:52.590                             : en:Chapter 19
01:34:03.555                             : en:Chapter 20
Світлини





Джерело:
Особиста оцінка: 8 - мені сподобалося


Авторський реліз (завантажувати можна без реєстрації)
 Трекер:    Зареєстрований   

Завантажити / скачати фільм українською



відео для новачків



 Зареєстрований:   2020-04-24 21:50
 Розмір:   2.74 GB 
 Оцінка фільму:   7.5/10 (Голосів: 4)
 ЗАЛИШАЙТЕСЬ ЯКОМОГА ДОВШЕ НА РОЗДАЧІ! ЗАВАНТАЖИВ САМ - ДАЙ ЗАВАНТАЖИТИ ІНШИМ!
   
Ваш часовий пояс: GMT + 2 Години

Нова тема   Відповісти