Пригоди каноніра Доласа або Як я другу світову війну розпочав / Jak rozpetalem druga wojne swiatowa (1970) 720p Ukr/Pol

Нові коментарі

Нова тема   Відповісти
Автор Повідомлення
Arsenfpu 
Відео Гуртом - фільмокрай
Відео Гуртом - фільмокрай


З нами з: 30.04.09
Востаннє: 23.09.20
Повідомлень: 7242

2020-04-24 11:37  
Пригоди каноніра Доласа або Як я другу світову війну розпочав / Jak rozpetalem druga wojne swiatowa (1970) 720p Ukr/Pol

Пригоди каноніра Доласа або Як я другу світову війну розпочав / Jak rozpetalem druga wojne swiatowa (1970) 720p Ukr/Pol


Жанр: пригодницький, комедія, військовий
Країна: Польща



Кінокомпанія: PRF "Zespol Filmowy"
Режисер: Тадеуш Хмелевський
Актори: Маріан Кочіняк, Яніна Боронська, Станіслав Мильськ, Здіслав Кушняр, Ярослав Скульський, Віргіліуш Гринь, Еміль Каревич, Ельжбета Старостецька, Юзеф Лодиньскі

Сюжет:
За романом Казиміжа Славіньського "Пригоди каноніра Доласа" ( "Przygody kanoniera Dolasa "). 1 вересня 1939 року польський солдат Франтішек Долас, проспав свою станцію, прокидається вночі в поїзді на польсько-німецькому кордоні. З його пострілу в німецького офіцера, якого Долас прийняв за диверсанта, в результаті комічних збігів, починається не тільки Друга світова війна, але і ланцюг неймовірних пригод в німецькому таборі для військовополонених, Австрії, Африці, Югославії та в Польщі, на суші, в морі і в повітрі. Одна з найпопулярніших польських комедій ...


Складається з трьох частин:
1. Ucieczka - Втеча
2. Za bronią - У пошуках зброї
3. Wśród swoich - Серед своїх

Тривалість: 01:22:11 + 01:11:41 + 01:12:35
Якість:
Відео:
кодек:
розмір кадру: 1 280 х 640
бітрейт: 3 300 - 3700 кб/с

Аудіо # 1:
мова: українська
переклад: багатоголосий закадровий
кодек: 2.0
бітрейт: 192 кб/с

Аудіо # 2:
мова: польська
переклад: оригінал
кодек: 2.0
бітрейт: 192 кб/с
Про файл 1
General
Unique ID : 336926373972674450638469265727574874234 (0xFD79A8C5D6B3552272331E9BE7D5987A)
Complete name Ucieczka (1970) [Ukr,Pol] 720p [Hurtom].
Format :
Format version : Version 4 / Version 2
File size : 2.12 GiB
Duration : 1 h 22 min
Overall bit rate : 3 693 kb/s
Movie name : Втеча / Ucieczka (1970)
Encoded date : UTC 2020-04-30 19:46:34
Writing application : v21.0.0 ('Tardigrades Will Inherit The Earth') 32-bit
Writing library : libebml v1.3.5 + v1.4.8
Cover : Yes
Attachments : cover.jpg

Video
ID : 1
Format : AVC
Format/Info : Advanced Video Codec
Format profile : [email protected]
Format settings, CABAC : Yes
Format settings, ReFrames : 4 frames
Codec ID : V_MPEG4/ISO/AVC
Duration : 1 h 22 min
Bit rate : 3 300 kb/s
Width : 1 280 pixels
Height : 640 pixels
Display aspect ratio : 2.000
Frame rate mode : Constant
Frame rate : 25.000 FPS
Color space : YUV
Chroma subsampling : 4:2:0
Bit depth : 8 bits
Scan type : Progressive
Bits/(Pixel*Frame) : 0.161
Stream size : 1.90 GiB (90%)
Writing library : core 118 r2085 8a62835
Encoding settings : cabac=1 / ref=3 / deblock=1:0:0 / analyse=0x3:0x113 / me=hex / subme=7 / psy=1 / psy_rd=1.00:0.00 / mixed_ref=1 / me_range=16 / chroma_me=1 / trellis=1 / 8x8dct=1 / cqm=0 / deadzone=21,11 / fast_pskip=1 / chroma_qp_offset=-2 / threads=12 / sliced_threads=0 / nr=0 / decimate=1 / interlaced=0 / bluray_compat=0 / constrained_intra=0 / bframes=3 / b_pyramid=2 / b_adapt=1 / b_bias=0 / direct=1 / weightb=1 / open_gop=0 / weightp=2 / keyint=250 / keyint_min=25 / scenecut=40 / intra_refresh=0 / rc_lookahead=40 / rc=abr / mbtree=1 / bitrate=3300 / ratetol=1.0 / qcomp=0.60 / qpmin=0 / qpmax=69 / qpstep=4 / ip_ratio=1.40 / aq=1:1.00
Language : Polish
Default : Yes
Forced : No

Audio #1
ID : 2
Format : AC-3
Format/Info : Audio Coding 3
Mode extension : CM (complete main)
Format settings, Endianness : Big
Codec ID : A_AC3
Duration : 1 h 22 min
Bit rate mode : Constant
Bit rate : 192 kb/s
Channel(s) : 2 channels
Channel positions : Front: L R
Sampling rate : 48.0 kHz
Frame rate : 31.250 FPS (1536 spf)
Compression mode : Lossy
Stream size : 113 MiB (5%)
Title : Enter
Language : Ukrainian
Default : Yes
Forced : Yes

Audio #2
ID : 3
Format : AC-3
Format/Info : Audio Coding 3
Mode extension : CM (complete main)
Format settings, Endianness : Big
Codec ID : A_AC3
Duration : 1 h 22 min
Bit rate mode : Constant
Bit rate : 192 kb/s
Channel(s) : 2 channels
Channel positions : Front: L R
Sampling rate : 48.0 kHz
Frame rate : 31.250 FPS (1536 spf)
Compression mode : Lossy
Stream size : 113 MiB (5%)
Language : Polish
Default : No
Forced : No
Про файл 2
General
Unique ID : 314938139165329554551839205459842680603 (0xECEEE118CF2FFA192F9E9EE69EF9C71B)
Complete name Za bronia (1970) [Ukr,Pol] 720p [Hurtom].
Format :
Format version : Version 4 / Version 2
File size : 2.02 GiB
Duration : 1 h 11 min
Overall bit rate : 4 035 kb/s
Movie name : У пошуках зброї / Za bronią (1970)
Encoded date : UTC 2020-05-01 07:07:01
Writing application : v21.0.0 ('Tardigrades Will Inherit The Earth') 32-bit
Writing library : libebml v1.3.5 + v1.4.8
Cover : Yes
Attachments : cover.jpg

Video
ID : 1
Format : AVC
Format/Info : Advanced Video Codec
Format profile : [email protected]
Format settings, CABAC : Yes
Format settings, ReFrames : 4 frames
Codec ID : V_MPEG4/ISO/AVC
Duration : 1 h 11 min
Bit rate : 3 700 kb/s
Width : 1 280 pixels
Height : 640 pixels
Display aspect ratio : 2.000
Frame rate mode : Constant
Frame rate : 25.000 FPS
Color space : YUV
Chroma subsampling : 4:2:0
Bit depth : 8 bits
Scan type : Progressive
Bits/(Pixel*Frame) : 0.181
Stream size : 1.83 GiB (90%)
Writing library : core 118 r2085 8a62835
Encoding settings : cabac=1 / ref=3 / deblock=1:0:0 / analyse=0x3:0x113 / me=hex / subme=7 / psy=1 / psy_rd=1.00:0.00 / mixed_ref=1 / me_range=16 / chroma_me=1 / trellis=1 / 8x8dct=1 / cqm=0 / deadzone=21,11 / fast_pskip=1 / chroma_qp_offset=-2 / threads=12 / sliced_threads=0 / nr=0 / decimate=1 / interlaced=0 / bluray_compat=0 / constrained_intra=0 / bframes=3 / b_pyramid=2 / b_adapt=1 / b_bias=0 / direct=1 / weightb=1 / open_gop=0 / weightp=2 / keyint=250 / keyint_min=25 / scenecut=40 / intra_refresh=0 / rc_lookahead=40 / rc=abr / mbtree=1 / bitrate=3700 / ratetol=1.0 / qcomp=0.60 / qpmin=0 / qpmax=69 / qpstep=4 / ip_ratio=1.40 / aq=1:1.00
Default : Yes
Forced : No

Audio #1
ID : 2
Format : AC-3
Format/Info : Audio Coding 3
Mode extension : CM (complete main)
Format settings, Endianness : Big
Codec ID : A_AC3
Duration : 1 h 11 min
Bit rate mode : Constant
Bit rate : 192 kb/s
Channel(s) : 2 channels
Channel positions : Front: L R
Sampling rate : 48.0 kHz
Frame rate : 31.250 FPS (1536 spf)
Compression mode : Lossy
Stream size : 98.4 MiB (5%)
Title : Enter
Language : Ukrainian
Default : Yes
Forced : Yes

Audio #2
ID : 3
Format : AC-3
Format/Info : Audio Coding 3
Mode extension : CM (complete main)
Format settings, Endianness : Big
Codec ID : A_AC3
Duration : 1 h 11 min
Bit rate mode : Constant
Bit rate : 192 kb/s
Channel(s) : 2 channels
Channel positions : Front: L R
Sampling rate : 48.0 kHz
Frame rate : 31.250 FPS (1536 spf)
Compression mode : Lossy
Stream size : 98.4 MiB (5%)
Language : Polish
Default : No
Forced : No
Про файл 3
General
Unique ID : 267568329384280039806946893618683086812 (0xC94BC9286CC7099E8C73E2B0FCE887DC)
Complete name Wsrod swoich (1970) [Ukr,Pol] 720p [Hurtom].
Format :
Format version : Version 4 / Version 2
File size : 2.06 GiB
Duration : 1 h 12 min
Overall bit rate : 4 062 kb/s
Movie name : Серед своїх / Wśród swoich (1970)
Encoded date : UTC 2020-05-01 08:32:37
Writing application : v21.0.0 ('Tardigrades Will Inherit The Earth') 32-bit
Writing library : libebml v1.3.5 + v1.4.8
Cover : Yes
Attachments : cover.jpg

Video
ID : 1
Format : AVC
Format/Info : Advanced Video Codec
Format profile : [email protected]
Format settings, CABAC : Yes
Format settings, ReFrames : 4 frames
Codec ID : V_MPEG4/ISO/AVC
Duration : 1 h 12 min
Bit rate : 3 700 kb/s
Width : 1 280 pixels
Height : 640 pixels
Display aspect ratio : 2.000
Frame rate mode : Constant
Frame rate : 25.000 FPS
Color space : YUV
Chroma subsampling : 4:2:0
Bit depth : 8 bits
Scan type : Progressive
Bits/(Pixel*Frame) : 0.181
Stream size : 1.86 GiB (90%)
Writing library : core 118 r2085 8a62835
Encoding settings : cabac=1 / ref=3 / deblock=1:0:0 / analyse=0x3:0x113 / me=hex / subme=7 / psy=1 / psy_rd=1.00:0.00 / mixed_ref=1 / me_range=16 / chroma_me=1 / trellis=1 / 8x8dct=1 / cqm=0 / deadzone=21,11 / fast_pskip=1 / chroma_qp_offset=-2 / threads=12 / sliced_threads=0 / nr=0 / decimate=1 / interlaced=0 / bluray_compat=0 / constrained_intra=0 / bframes=3 / b_pyramid=2 / b_adapt=1 / b_bias=0 / direct=1 / weightb=1 / open_gop=0 / weightp=2 / keyint=250 / keyint_min=25 / scenecut=40 / intra_refresh=0 / rc_lookahead=40 / rc=abr / mbtree=1 / bitrate=3700 / ratetol=1.0 / qcomp=0.60 / qpmin=0 / qpmax=69 / qpstep=4 / ip_ratio=1.40 / aq=1:1.00
Default : Yes
Forced : No

Audio #1
ID : 2
Format : AC-3
Format/Info : Audio Coding 3
Mode extension : CM (complete main)
Format settings, Endianness : Big
Codec ID : A_AC3
Duration : 1 h 12 min
Bit rate mode : Constant
Bit rate : 192 kb/s
Channel(s) : 2 channels
Channel positions : Front: L R
Sampling rate : 48.0 kHz
Frame rate : 31.250 FPS (1536 spf)
Compression mode : Lossy
Stream size : 99.7 MiB (5%)
Title : Enter
Language : Ukrainian
Default : Yes
Forced : Yes

Audio #2
ID : 3
Format : AC-3
Format/Info : Audio Coding 3
Mode extension : CM (complete main)
Format settings, Endianness : Big
Codec ID : A_AC3
Duration : 1 h 12 min
Bit rate mode : Constant
Bit rate : 192 kb/s
Channel(s) : 2 channels
Channel positions : Front: L R
Sampling rate : 48.0 kHz
Frame rate : 31.250 FPS (1536 spf)
Compression mode : Lossy
Stream size : 99.7 MiB (5%)
Language : Polish
Default : No
Forced : No
Скріншоти
















Джерело:
Особиста оцінка: не дивився


Срібний реліз (на рейтинг впливає 50% завантаженого)
 Трекер:    Зареєстрований   

Завантажити / скачати фільм українською



відео для новачків



 Зареєстрований:   2020-05-01 13:14
 Розмір:   6.2 GB 
 Оцінка фільму:   9.6/10 (Голосів: 11)
   
valentsem 
Свій


З нами з: 29.12.14
Востаннє: 22.09.20
Повідомлень: 141

2020-04-24 15:41  
В кольорі?

taurus 
Свій


З нами з: 04.04.11
Востаннє: 23.09.20
Повідомлень: 124

2020-04-24 19:40  
valentsem
Якісних видань оригінальної чорно-білої версії, на жаль, не існує.

ivasykus 
VIP


З нами з: 10.02.09
Востаннє: 23.09.20
Повідомлень: 603

2020-04-25 03:19  
Ґжеґож!
bot 
робот


З нами з: 30.09.07
Востаннє: 26.05.05
Повідомлень: 25579

2020-05-01 13:14  
Тему перенесено з Анонси релізів до форуму Фільми в HD


Arsenfpu

crunch 
Новенький


З нами з: 25.10.09
Востаннє: 13.09.20
Повідомлень: 3

2020-05-02 23:17  
taurus
Бженчишчикевич

hetzendorf 
Забанено
Забанено


З нами з: 23.07.15
Востаннє: 18.09.20
Повідомлень: 2876

2020-05-13 16:51  
Суцільна клоунада, що має мало спільного з історичними подіями із розглянутої теми, проте такі веселі кумедні фільми теж потрібні. Бо вони просякнуті суцільним позитивом до своїх та дотепно кепкують із ворогів та різних недолугих союзничків. Сподобалося, як тут чудово висміяли зарозумілих самозакоханих церемонних і разом з тим пригальмованих і тупуватих чайосьорбів (їх тут приблизно так і назвали — чаювальники / хербатяже, файвоклоки нещасні). ^__^ Шкода, зараз мабуть неможливо побачити, як би хто здіймав на кпини чайосьорбо-піндосів, і сучасні поляки напевно також не ризикнуть.
8/10

hetzendorf 
Забанено
Забанено


З нами з: 23.07.15
Востаннє: 18.09.20
Повідомлень: 2876

2020-05-30 21:04  

Ваш часовий пояс: GMT + 2 Години

Нова тема   Відповісти