Сингулярність / Singularity (2017) AVC Ukr/Eng | sub Eng

Нові коментарі

Нова тема   Відповісти
Автор Повідомлення
Arsenfpu 
Відео Гуртом - фільмокрай
Відео Гуртом - фільмокрай


З нами з: 30.04.09
Востаннє: 04.07.20
Повідомлень: 7031

2020-04-24 11:26  
Сингулярність / Singularity (2017) AVC Ukr/Eng | sub Eng

Сингулярність / Singularity (2017) AVC Ukr/Eng | sub Eng


Жанр: екшн, пригодницький, драма
Країна: Швейцарія, США



Кінокомпанія: Calanda Pictures, Vantis Pictures, Voltage Pictures
Режисер: Роберт Коубі
Актори: Джуліан Шаффнер, Джон К'юсак, Кармен Аргензіано, Ейлін Груббе, Джанніні Вакер, Пол Амерікен, Павло Бубряк, Девід Крісман, Еліза Дворакова

Сюжет:
У 2020 році глава компанії VA Industries, найбільшої з усіх в сфері робототехніки, представляє світові свій останній винахід - комп'ютер Кронос, який повинен покласти край війнам в усьому світі. Кронос швидко розуміє, що головна загроза миру на Землі - самі люди, і запускає програму по знищенню людства. 97 років по тому невелика група людей, що вижила все ще ховається від армії роботів. Підлітки Ендрю і Калія об'єднуються в пошуках нового світу, де, за чутками, люди живуть, не побоюючись роботів. Але чи існує цей світ, і чи зможуть вони його знайти?


Тривалість: 01:32:27
Якість:
Відео:
кодек:
розмір кадру: 1024 х 430
бітрейт: 1598 кб/с

Аудіо # 1:
мова: українська
переклад: багатоголосий закадровий
кодек: 2.0
бітрейт: 192 кб/с

Аудіо # 2:
мова: англійська
переклад: оригінал
кодек: 2.0
бітрейт: 192 кб/с

Субтитри:
мова: англійська
тип: програмні (м'які)
формат: *.srt
Скріншоти














Про файл
General
Unique ID : 190816042941423969392166745015964336969 (0x8F8DD545D8EFE965C8882D79B05F0349)
Complete name : C:\Singularity (2017) [Ukr,Eng] AVC [Hurtom].
Format :
Format version : Version 4 / Version 2
File size : 1.28 GiB
Duration : 1 h 32 min
Overall bit rate : 1 981 kb/s
Movie name : Сингулярність / Singularity (2017)
Encoded date : UTC 2020-04-30 17:42:37
Writing application : v21.0.0 ('Tardigrades Will Inherit The Earth') 32-bit
Writing library : libebml v1.3.5 + v1.4.8
Cover : Yes
Attachments : cover.jpg

Video
ID : 1
Format : AVC
Format/Info : Advanced Video Codec
Format profile : [email protected]
Format settings, CABAC : Yes
Format settings, ReFrames : 12 frames
Codec ID : V_MPEG4/ISO/AVC
Duration : 1 h 32 min
Bit rate : 1 598 kb/s
Width : 1 024 pixels
Height : 430 pixels
Display aspect ratio : 2.40:1
Frame rate mode : Constant
Frame rate : 23.976 (23976/1000) FPS
Color space : YUV
Chroma subsampling : 4:2:0
Bit depth : 8 bits
Scan type : Progressive
Bits/(Pixel*Frame) : 0.151
Stream size : 1.03 GiB (80%)
Title : Enigma
Writing library : core 152 r2851 ba24899
Encoding settings : cabac=1 / ref=12 / deblock=1:-2:-3 / analyse=0x3:0x113 / me=umh / subme=11 / psy=1 / psy_rd=1.05:0.10 / mixed_ref=1 / me_range=32 / chroma_me=1 / trellis=2 / 8x8dct=1 / cqm=0 / deadzone=21,11 / fast_pskip=0 / chroma_qp_offset=-3 / threads=12 / lookahead_threads=3 / sliced_threads=0 / nr=0 / decimate=0 / interlaced=0 / bluray_compat=0 / constrained_intra=0 / bframes=12 / b_pyramid=2 / b_adapt=2 / b_bias=0 / direct=3 / weightb=1 / open_gop=0 / weightp=2 / keyint=240 / keyint_min=23 / scenecut=40 / intra_refresh=0 / rc_lookahead=40 / rc=2pass / mbtree=0 / bitrate=1598 / ratetol=1.0 / qcomp=0.60 / qpmin=0 / qpmax=51 / qpstep=4 / cplxblur=20.0 / qblur=0.5 / vbv_maxrate=50000 / vbv_bufsize=62500 / nal_hrd=none / filler=0 / ip_ratio=1.40 / pb_ratio=1.30 / aq=1:1.00
Language : English
Default : Yes
Forced : No
Color range : Limited
Color primaries : BT.709
Transfer characteristics : BT.709
Matrix coefficients : BT.709

Audio #1
ID : 2
Format : AC-3
Format/Info : Audio Coding 3
Mode extension : CM (complete main)
Format settings, Endianness : Big
Codec ID : A_AC3
Duration : 1 h 32 min
Bit rate mode : Constant
Bit rate : 192 kb/s
Channel(s) : 2 channels
Channel positions : Front: L R
Sampling rate : 48.0 kHz
Frame rate : 31.250 FPS (1536 spf)
Compression mode : Lossy
Stream size : 127 MiB (10%)
Title : ICTV
Language : Ukrainian
Default : Yes
Forced : Yes

Audio #2
ID : 3
Format : AC-3
Format/Info : Audio Coding 3
Mode extension : CM (complete main)
Format settings, Endianness : Big
Codec ID : A_AC3
Duration : 1 h 32 min
Bit rate mode : Constant
Bit rate : 192 kb/s
Channel(s) : 2 channels
Channel positions : Front: L R
Sampling rate : 48.0 kHz
Frame rate : 31.250 FPS (1536 spf)
Compression mode : Lossy
Stream size : 127 MiB (10%)
Language : English
Default : No
Forced : No

Text
ID : 4
Format : UTF-8
Codec ID : S_TEXT/UTF8
Codec ID/Info : UTF-8 Plain Text
Duration : 1 h 26 min
Bit rate : 33 b/s
Count of elements : 696
Stream size : 21.2 KiB (0%)
Language : English
Default : No
Forced : No

Menu
00:00:00.000 : en:Chapter 00
00:00:05.005 : en:Chapter 01
00:05:13.021 : en:Chapter 02
00:11:45.788 : en:Chapter 03
00:17:44.730 : en:Chapter 04
00:23:47.676 : en:Chapter 05
00:29:50.205 : en:Chapter 06
00:35:13.736 : en:Chapter 07
00:41:27.151 : en:Chapter 08
00:46:51.558 : en:Chapter 09
00:52:23.515 : en:Chapter 10
00:58:20.497 : en:Chapter 11
01:04:27.113 : en:Chapter 12
01:10:09.246 : en:Chapter 13
01:15:12.841 : en:Chapter 14
01:21:04.484 : en:Chapter 15
01:27:29.619 : en:Chapter 16
Джерело:
За запис з ТБ дякую пану Bohdan237
За постер дякую пану alexander_bortnyk
Особиста оцінка: не дивився


 Трекер:    Зареєстрований   

Завантажити / скачати фільм українською



відео для новачків



 Зареєстрований:   2020-04-30 21:26
 Розмір:   1.28 GB 
 Оцінка фільму:   6.8/10 (Голосів: 16)
   
Інші релізи
esminets 
Новенький


З нами з: 18.02.08
Востаннє: 03.07.20
Повідомлень: 14

2020-04-25 13:43  
А варто з таким рейтингом?
Arsenfpu 
Відео Гуртом - фільмокрай
Відео Гуртом - фільмокрай


З нами з: 30.04.09
Востаннє: 04.07.20
Повідомлень: 7031

2020-04-25 13:52  
esminets
Так

Drool 
VIP


З нами з: 17.04.10
Востаннє: 29.06.20
Повідомлень: 1542

2020-04-26 14:33  
Вчора на ICTV після обох "фантастичних четвірок" пустили цей - мене вистачило на 15 хвилин. Я так і не зрозумів, що я дивився...
bot 
робот


З нами з: 30.09.07
Востаннє: 26.05.05
Повідомлень: 24938

2020-04-30 21:26  
Тему перенесено з Анонси релізів до форуму Фільми


Arsenfpu

midnight_man 
Свій


З нами з: 13.10.09
Востаннє: 04.07.20
Повідомлень: 107

2020-04-30 22:37  
Такий гарний постер і такий "гарний" рейтинг
ведробрільянтів 
Новенький


З нами з: 29.10.19
Востаннє: 04.07.20
Повідомлень: 6

2020-05-03 10:11  
Сценарій мабуть з'явився на зупинці автобуса за 10 хв. в очікуванні автобуса.
don pedro 
Попереджень: 1
Попереджень: 1 


З нами з: 29.06.11
Востаннє: 03.07.20
Повідомлень: 17123

2020-05-03 15:25  
Arsenfpu написано:
ронос швидко розуміє, що головна загроза миру на Землі - самі люди, і запускає програму по знищенню людства. 97 років по тому невелика група людей, що вижила все ще ховається від армії роботів.

Привіт термінаторові.
Прикро, що Джон Кьюсак опустився до зйомок у такому кіно.

Ваш часовий пояс: GMT + 2 Години

Нова тема   Відповісти