#ящетут / #jesuislà (2019) AVC Ukr/Fre | Sub Fre

Нові коментарі

Нова тема   Відповісти
Автор Повідомлення
eneyida.tv 
Новенький


З нами з: 27.09.19
Востаннє: 30.06.20
Повідомлень: 23

2020-04-24 10:09  
#ящетут / #jesuislà (2019) AVC Ukr/Fre | Sub Fre

#ящетут / #jesuislà (2019) AVC Ukr/Fre | Sub Fre


Жанр: комедія, романтика
Країна: Франція, Бельгія



Кінокомпанія: Gaumont, France 2 Cinéma
Режисер: Ерік Лартіго
Актори: Ален Шаба, Пе Ду-на, Бланш Гарден, Іліан Берган, Жуль Саго, Камілла Рутерфорд, Дельфін Глейз, Лазар Лартіго, Венсан Немет, Наталі Лакруа

Сюжет:
Стефан – французький шеф-кухар, який працює у власному елітному ресторані. Все, чого не вистачає в його житті – це тої, із ким можна було би розділити це саме життя на двох. Прекрасний будинок, турботливий син, друзі, успішний бізнес – усе є, а кохання немає. А прийшло воно, як зараз прийнято, із соцмереж. В одній із них Стефан познайомився з чарівною корейською дівчиною Су. З кожним днем чоловік, що перейнявся до неї симпатією, все більше та більше дізнавався про дівчину. І ось одного дня його осяяла думка – він хоче полетіти до Сеулу подивитися, як цвітуть сакури. Після прибуття в аеропорт Су його не зустріла, але Стефан не збирався так просто здаватися. Він розповість кожному зустрічному про своє кохання до дівчини та зробить усе можливе, щоб її знайти. Весь Сеул буде його знати як "французького коханця".


Тривалість: 01:37:35
Якість: AVC - [by Maters]
Відео:
кодек:
розмір кадру: 1024 x 554
бітрейт: 1900 кб/с

Аудіо # 1:
мова: українська
переклад: професійний дубльований
кодек: 2.0
бітрейт: 192 кб/с

Аудіо # 2:
мова: французька
переклад: оригінал
кодек: 5.1
бітрейт: 384 кб/с

Субтитри # 1 - 2: (Forced, SDH)
мова: французька
тип: програмні (м'які)
формат: *.srt
Info
General
Complete name : #jesuislà (2019) AVC [Ukr,Fre] [eneyida.tv].
Format :
Format version : Version 4
File size : 1.69 GiB
Duration : 1 h 37 min
Overall bit rate : 2 477 kb/s
Movie name : #ящетут / #jesuislà (2019)
Encoded date : UTC 2020-04-27 10:08:54
Writing application : v30.1.0 ('Forever And More') 64-bit
Writing library : libebml v1.3.6 + v1.4.9
Cover : Yes
Attachments : cover.jpg

Video
ID : 1
Format : AVC
Format/Info : Advanced Video Codec
Format profile : [email protected]
Format settings : CABAC / 9 Ref Frames
Format settings, CABAC : Yes
Format settings, RefFrames : 9 frames
Codec ID : V_MPEG4/ISO/AVC
Duration : 1 h 37 min
Bit rate : 1 900 kb/s
Width : 1 024 pixels
Height : 554 pixels
Display aspect ratio : 1.85:1
Frame rate mode : Constant
Frame rate : 24.000 FPS
Color space : YUV
Chroma subsampling : 4:2:0
Bit depth : 8 bits
Scan type : Progressive
Bits/(Pixel*Frame) : 0.140
Stream size : 1.29 GiB (77%)
Title : by Maters
Writing library : core 157 r2935 545de2f
Encoding settings : cabac=1 / ref=9 / deblock=1:-1:-1 / analyse=0x3:0x113 / me=umh / subme=11 / psy=1 / psy_rd=1.00:0.15 / mixed_ref=1 / me_range=48 / chroma_me=1 / trellis=2 / 8x8dct=1 / cqm=0 / deadzone=21,11 / fast_pskip=0 / chroma_qp_offset=-5 / threads=17 / lookahead_threads=2 / sliced_threads=0 / nr=0 / decimate=1 / interlaced=0 / bluray_compat=0 / constrained_intra=0 / bframes=8 / b_pyramid=2 / b_adapt=2 / b_bias=0 / direct=1 / weightb=1 / open_gop=0 / weightp=2 / keyint=240 / keyint_min=23 / scenecut=40 / intra_refresh=0 / rc_lookahead=60 / rc=2pass / mbtree=1 / bitrate=1900 / ratetol=1.0 / qcomp=0.60 / qpmin=10 / qpmax=69 / qpstep=4 / cplxblur=20.0 / qblur=0.5 / vbv_maxrate=50000 / vbv_bufsize=62500 / nal_hrd=none / filler=0 / ip_ratio=1.40 / aq=1:1.00
Default : Yes
Forced : No

Audio #1
ID : 2
Format : AC-3
Format/Info : Audio Coding 3
Commercial name : Dolby Digital
Codec ID : A_AC3
Duration : 1 h 37 min
Bit rate mode : Constant
Bit rate : 192 kb/s
Channel(s) : 2 channels
Channel layout : L R
Sampling rate : 48.0 kHz
Frame rate : 31.250 FPS (1536 SPF)
Bit depth : 16 bits
Compression mode : Lossy
Stream size : 134 MiB (8%)
Title : Ukranian - 2.0 @ 192 kbps
Language : Ukrainian
Service kind : Complete Main
Default : Yes
Forced : No

Audio #2
ID : 3
Format : AC-3
Format/Info : Audio Coding 3
Commercial name : Dolby Digital
Codec ID : A_AC3
Duration : 1 h 37 min
Bit rate mode : Constant
Bit rate : 384 kb/s
Channel(s) : 6 channels
Channel layout : L R C LFE Ls Rs
Sampling rate : 48.0 kHz
Frame rate : 31.250 FPS (1536 SPF)
Bit depth : 16 bits
Compression mode : Lossy
Stream size : 268 MiB (16%)
Title : Original - 5.1 @ 384 kbps
Language : French
Service kind : Complete Main
Default : No
Forced : No

Text #1
ID : 4
Format : UTF-8
Codec ID : S_TEXT/UTF8
Codec ID/Info : UTF-8 Plain Text
Duration : 59 min 55 s
Bit rate : 7 b/s
Count of elements : 145
Stream size : 3.39 KiB (0%)
Title : Forced
Language : French
Default : Yes
Forced : No

Text #2
ID : 5
Format : UTF-8
Codec ID : S_TEXT/UTF8
Codec ID/Info : UTF-8 Plain Text
Duration : 1 h 37 min
Bit rate : 45 b/s
Count of elements : 1333
Stream size : 32.2 KiB (0%)
Title : French SDH
Language : French
Default : No
Forced : No

Menu
00:00:00.000 : en:Chapitre 1
00:09:45.666 : en:Chapitre 2
00:19:50.332 : en:Chapitre 3
00:29:17.790 : en:Chapitre 4
00:39:55.706 : en:Chapitre 5
00:50:11.247 : en:Chapitre 6
00:59:10.497 : en:Chapitre 7
01:09:01.955 : en:Chapitre 8
01:19:43.955 : en:Chapitre 9
01:30:43.121 : en:Chapitre 10
Скріншоти


Джерело: eneyida.tv
Особиста оцінка: 0 - не дивився


 Трекер:    Зареєстрований   

Завантажити / скачати фільм українською



відео для новачків



 Зареєстрований:   2020-04-27 13:16
 Розмір:   1.69 GB 
 Оцінка фільму:   8.6/10 (Голосів: 14)
   
Інші релізи
   #ящетут / #jesuislà (2019) 1080p Ukr/Fre | Sub Fre antik_2008  13 / 0   3.93 GB   2020-04-27 20:58 
   #ящетут / #jesuislà (2019) antik_2008  8 / 0   1.46 GB   2020-04-27 15:47 
bot 
робот


З нами з: 30.09.07
Востаннє: 26.05.05
Повідомлень: 24973

2020-04-24 10:09  
Тему перенесено з Фільми до форуму Анонси релізів


eneyida.tv

Lil`Antoni 
VIP


З нами з: 25.02.12
Востаннє: 30.06.20
Повідомлень: 837

2020-04-26 13:36  
Цікавий фільм, дякую, вчора глянув ввечері, дуже цікаво.
antik_2008 
Релізер і модератор відео


З нами з: 20.10.08
Востаннє: 04.07.20
Повідомлень: 3909

2020-04-27 13:16  
eneyida.tv Дякую за реліз ! Гарний фільм має бути Happy
okos 
Новенький


З нами з: 26.06.11
Востаннє: 05.07.20
Повідомлень: 10

2020-04-27 16:32  
У фільмі теж реклама ТНК чи тільки на постері?
antik_2008 
Релізер і модератор відео


З нами з: 20.10.08
Востаннє: 04.07.20
Повідомлень: 3909

2020-04-27 16:41  
okos написано:
У фільмі теж реклама ТНК чи тільки на постері?

Подивитися треба , щоб знати )))

Electroz 
Відео Гуртом - підтримка та поширення
Відео Гуртом - підтримка та поширення


З нами з: 18.09.14
Востаннє: 05.07.20
Повідомлень: 3947

2020-04-27 16:47  
okos написано:
У фільмі теж реклама ТНК чи тільки на постері?

Тільки на постері, їх варто обрізати.

Ваш часовий пояс: GMT + 2 Години

Нова тема   Відповісти