Метод Комінськи (Сезон 2) / The Kominsky Method (Season 2) (2019) 1080р Ukr/Eng | Sub Ukr/Eng

Нові коментарі

Нова тема   Відповісти
Автор Повідомлення
Anaive 
VIP


З нами з: 07.06.11
Востаннє: 05.12.20
Повідомлень: 325

2020-04-24 08:16  
Метод Комінськи (Сезон 2) / The Kominsky Method (Season 2) (2019) 1080р Ukr/Eng | Sub Ukr/Eng

Метод Комінськи (Сезон 2) / The Kominsky Method (Season 2) (2019) 1080р Ukr/Eng | Sub Ukr/Eng


Жанр: комедія
Країна: США



Кінокомпанія: Chuck Lorre Productions, Netflix, Warner Bros. Television
Режисер: Чак Лорі
Актори: Алан Аркін, Сара Бейкер, Майкл Дуглас та інші

Сюжет:
Підстаркуватий актор, що колись був славетним, нині заробляє на життя навчаючи студентів акторської майстерності


Тривалість: 1 серія: 25:00 (цілком серій: 1-8 з 8)
Перелік серій
The Kominsky Method. Episode 1. Chapter 9 An Actor Forgets
The Kominsky Method. Episode 2. Chapter 10. An Old Flame
The Kominsky Method. Episode 3. Chapter 11. An Odd Couple Occurs
The Kominsky Method. Episode 4. Chapter 12. A Libido Sits in the Fridge
The Kominsky Method. Episode 5. Chapter 13. A Shenckman Equivocates
The Kominsky Method. Episode 6. Chapter 14. A Secret Leaks a Teacher Speaks
The Kominsky Method. Episode 7. Chapter 15. A Hand Job Is Forgiven
The Kominsky Method. Episode 8. Chapter 16. A Thetan Arrives
Якість:
Відео:
кодек:
розмір кадру: 1920x1080
бітрейт: 3983 кб/с
контейнер:

Аудіо # 1:
мова: українська
переклад: двоголосий закадровий
кодек: 5.1
бітрейт: 640кб/с

Аудіо # 2:
мова: англійська
переклад: оригінал
кодек: E- 5.1
бітрейт: 640 кб/с

Джерело озвучення:
AnaivE & Artymko
Джерело перекладу: bohdk

Субтитри # 1:
мова: українська
тип: програмні (м'які)
формат: *.srt

Субтитри # 2:
мова: англійська (SDH)
тип: програмні (м'які)
формат: *.srt
Info
General
Unique ID : 275460710306246457314212272936495180367 (0xCF3BCD948F650C51CB82F4ADB1816A4F)
Complete name : D:\Video\The.Kominsky.Method.S02.1080p. ukr\The.Kominsky.Method.S02E01.Chapter.9.An.Actor.Forgets.1080p..audio.Ukr.Eng.sub.Uk.En.
Format :
Format version : Version 4
File size : 963 MiB
Duration : 25 min 34 s
Overall bit rate mode : Variable
Overall bit rate : 5 265 kb/s
Movie name : Chapter.9.An.Actor.Forgets
Encoded date : UTC 2020-04-23 20:53:56
Writing application : v41.0.0 ('Smarra') 64-bit
Writing library : libebml v1.3.9 + v1.5.2
Attachments : Poster.jpg

Video
ID : 1
Format : AVC
Format/Info : Advanced Video Codec
Format profile : [email protected]
Format settings : CABAC / 4 Ref Frames
Format settings, CABAC : Yes
Format settings, Reference frames : 4 frames
Codec ID : V_MPEG4/ISO/AVC
Duration : 25 min 33 s
Bit rate mode : Variable
Bit rate : 3 983 kb/s
Maximum bit rate : 20.0 Mb/s
Width : 1 920 pixels
Height : 1 080 pixels
Display aspect ratio : 16:9
Frame rate mode : Constant
Frame rate : 23.976 (24000/1001) FPS
Color space : YUV
Chroma subsampling : 4:2:0
Bit depth : 8 bits
Scan type : Progressive
Bits/(Pixel*Frame) : 0.080
Stream size : 728 MiB (76%)
Title : Chapter.9.An.Actor.Forgets
Writing library : core 148 r2715 7e75228
Encoding settings : cabac=1 / ref=4 / deblock=1:0:0 / analyse=0x3:0x111 / me=umh / subme=10 / psy=1 / psy_rd=1.00:0.00 / mixed_ref=1 / me_range=120 / chroma_me=1 / trellis=2 / 8x8dct=1 / cqm=0 / deadzone=21,11 / fast_pskip=1 / chroma_qp_offset=-2 / threads=6 / lookahead_threads=1 / sliced_threads=0 / nr=0 / decimate=1 / interlaced=0 / bluray_compat=0 / stitchable=1 / constrained_intra=0 / bframes=16 / b_pyramid=2 / b_adapt=2 / b_bias=0 / direct=3 / weightb=1 / open_gop=0 / weightp=2 / keyint=240 / keyint_min=121 / scenecut=0 / intra_refresh=0 / rc_lookahead=240 / rc=crf / mbtree=1 / crf=16.0 / qcomp=0.50 / qpmin=6 / qpmax=51 / qpstep=4 / vbv_maxrate=20000 / vbv_bufsize=25000 / crf_max=0.0 / nal_hrd=vbr / filler=0 / ip_ratio=1.40 / aq=1:0.80
Language : English
Default : Yes
Forced : No

Audio #1
ID : 2
Format : AC-3
Format/Info : Audio Coding 3
Commercial name : Dolby Digital
Codec ID : A_AC3
Duration : 25 min 34 s
Bit rate mode : Constant
Bit rate : 640 kb/s
Channel(s) : 6 channels
Channel layout : L R C LFE Ls Rs
Sampling rate : 48.0 kHz
Frame rate : 31.250 FPS (1536 SPF)
Compression mode : Lossy
Stream size : 117 MiB (12%)
Language : Ukrainian
Service kind : Complete Main
Default : Yes
Forced : No

Audio #2
ID : 3
Format : E-AC-3
Format/Info : Enhanced AC-3
Commercial name : Dolby Digital Plus
Codec ID : A_EAC3
Duration : 25 min 34 s
Bit rate mode : Constant
Bit rate : 640 kb/s
Channel(s) : 6 channels
Channel layout : L R C LFE Ls Rs
Sampling rate : 48.0 kHz
Frame rate : 31.250 FPS (1536 SPF)
Compression mode : Lossy
Stream size : 117 MiB (12%)
Title : E- 5.1 @ 640 kbps - Original
Language : English
Service kind : Complete Main
Default : No
Forced : No

Text #1
ID : 4
Format : UTF-8
Codec ID : S_TEXT/UTF8
Codec ID/Info : UTF-8 Plain Text
Duration : 24 min 37 s
Bit rate : 124 b/s
Count of elements : 485
Stream size : 22.4 KiB (0%)
Title : Ukrainian by bohdk
Language : Ukrainian
Default : No
Forced : No

Text #2
ID : 5
Format : UTF-8
Codec ID : S_TEXT/UTF8
Codec ID/Info : UTF-8 Plain Text
Duration : 23 min 15 s
Bit rate : 87 b/s
Count of elements : 500
Stream size : 15.0 KiB (0%)
Title : Full SDH
Language : English
Default : No
Forced : No
Скріншоти


Джерело:
Особиста оцінка: 8 - мені сподобалося


Авторський реліз (завантажувати можна без реєстрації)
 Трекер:    Зареєстрований   

Завантажити / скачати серіал українською



відео для новачків



 Зареєстрований:   2020-10-20 09:01
 Розмір:   9.45 GB 
 Оцінка серіалу:   9.2/10 (Голосів: 18)
   
Anaive 
VIP


З нами з: 07.06.11
Востаннє: 05.12.20
Повідомлень: 325

2020-04-24 08:43  
варто додати збору коштів на цей серіал немає і не буде, тому виходити серії будуть, коли є настрій Happy
впевнений, так само довго буде як з Комендантська година (Сезон 1) / Curfew (Season 1)

Anaive 
VIP


З нами з: 07.06.11
Востаннє: 05.12.20
Повідомлень: 325

2020-04-24 15:02  
ХА, завтикав: в ланцюгу плагінів не включив еквалайзер...
і сижу думаю, що за лайно, чому такий звук (хоча він завжди фіговий то є так Wide grin)
з другою серією заміню доріжку і в першій Happy

Anaive 
VIP


З нами з: 07.06.11
Востаннє: 05.12.20
Повідомлень: 325

2020-04-24 21:05  
в першій я вже замінив звук Happy

Додано через 13 хвилин 18 секунд:

+2 серія

Anaive 
VIP


З нами з: 07.06.11
Востаннє: 05.12.20
Повідомлень: 325

2020-05-09 16:23  
+3 серія
Замінив попередні дві серії, прошу перезавантажити. Як ви вже помітили, тепер озвучуємо з Артимко.

LesiaLesia 
Частий відвідувач


З нами з: 03.05.12
Востаннє: 05.12.20
Повідомлень: 44

2020-05-09 22:24  
Як звук?
Anaive 
VIP


З нами з: 07.06.11
Востаннє: 05.12.20
Повідомлень: 325

2020-05-10 15:54  
LesiaLesia
всі свої "роботи зі звуком" я оцінюю так: "Хтось зробив би краще - це точно"
Завантажте одну серію - послухайте, не сподобається - вимкніть та й забудьте Happy

Anaive 
VIP


З нами з: 07.06.11
Востаннє: 05.12.20
Повідомлень: 325

2020-05-16 17:22  
+4 серія
Anaive 
VIP


З нами з: 07.06.11
Востаннє: 05.12.20
Повідомлень: 325

2020-05-31 14:25  
+5 серія
Anaive 
VIP


З нами з: 07.06.11
Востаннє: 05.12.20
Повідомлень: 325

2020-07-15 21:34  
+6 серія

Додано через 9 хвилин 38 секунд:

Користуючись нагодою (на правах реклами), шановні глядачі, наразі на цей серіал не проводиться збір коштів і проводитись не буде, але Ви можете підтримати завершення озвучення сьомого сезону Війн клонів Happy
Деталі тут: https://toloka.to/t107475

okshurdna 
Новенький


З нами з: 04.12.15
Востаннє: 04.12.20
Повідомлень: 2

2020-09-02 00:45  
блін, не можу дочекатись завершення сезону. чекаю останні серії.
Anaive 
VIP


З нами з: 07.06.11
Востаннє: 05.12.20
Повідомлень: 325

2020-09-14 08:07  
Варто попросити перекладача, як тільки з'явиться 8 серія - завершимо сезон Happy
bohdk 
Відео Гуртом - субтитрування
Відео Гуртом - субтитрування


З нами з: 23.10.09
Востаннє: 03.12.20
Повідомлень: 741

2020-09-15 13:43  
Anaive
Цитата:
Варто попросити перекладача, як тільки з'явиться 8 серія - завершимо сезон Happy

Майже готовий переклад, на останній вичитці збойнув лептоп. Cry (1) - 56К $00. Ні з кешу, ні відновленням. А день-два перед тим квакнула флешка з бекапами. Це щось пороблено... Happy
Поки озвучите сьому серію, сподіваюсь, щось встигну.

Anaive 
VIP


З нами з: 07.06.11
Востаннє: 05.12.20
Повідомлень: 325

2020-09-19 19:38  
+7 серія

Додано через 4 хвилини 26 секунд:

bohdk
Чекаємо Happy

Anaive 
VIP


З нами з: 07.06.11
Востаннє: 05.12.20
Повідомлень: 325

2020-10-20 09:03  
8-а заключна серія.
Ваш часовий пояс: GMT + 2 Години

Нова тема   Відповісти