Куля в голові (Bullet in the Head) / Die xue jie tou (1990) 1080p Ukr/Chi | Sub Chi

Нові коментарі

Нова тема   Відповісти
Автор Повідомлення
PatataFrita 
Свій


З нами з: 05.04.20
Востаннє: 08.09.20
Повідомлень: 83

2020-04-24 07:54  
Куля в голові (Bullet in the Head) / Die xue jie tou (1990) 1080p Ukr/Chi | Sub Chi

Куля в голові (Bullet in the Head) / Die xue jie tou (1990) 1080p Ukr/Chi | Sub Chi


Жанр: екшн, кримінальний, драма
Країна: Гонконг



Кінокомпанія: Media 8 Entertainment, Bacon & Eggs, Santo Domingo Film & Music Video
Режисер: Джон Ву [John Woo]
Актори: Тоні Люн Чу Вай [Tony Chiu-Wai Leung], Джеккі Чун [Jacky Cheung], Уейз Лі [Waise Lee], Саймон Ям [Simon Yam], Фенніє Юень [Fennie Yuen], Йолінда Йам [Yolinda Yam], Джон Ву [John Woo], Шек Йін Лау [Shek Yin Lau], Чунг Лін [Chung Lam], Хі Чінг Пав [Hee Ching Paw]

Сюжет:
Троє друзів з Гонконгу відправляються в пошуках легкого заробітку в Сайгон, скориставшись хаосом, що панує там через війну. Але герої й не припускають, які їх чекають випробування: вступити в нерівний бій з місцевою мафією, військами комуністичного В'єтнаму, бігти з полону й довідатися, яка ж насправді ціна дружби: золото або куля в голові?


Тривалість: 02:10:57
Якість: 1080p
Відео:
кодек:
розмір кадру: 1920x1020
бітрейт: 10100 кб/с

Аудіо # 1:
мова: українська
переклад: багатоголосий закадровий
кодек: 2.0
бітрейт: 192 кб/с

Аудіо # 2:
мова: китайська
переклад: оригінал | Mandarin
кодек: 5.1
бітрейт: 640 кб/с

Джерело озвучення:


Субтитри:
мова: китайська |Mandarin
тип: програмні (м'які)
формат: *.vob
Info
General
Unique ID : 281007503561648681105267639527226967764 (0xD368139A22F9A97E30CB57D9F3DB86D4)
Complete name : D:\Die xue jie tou (1990) 1080p [Hurtom].
Format :
Format version : Version 4
File size : 10.0 GiB
Duration : 2 h 10 min
Overall bit rate : 11.0 Mb/s
Movie name : Die xue jie tou (1990) 1080p [Hurtom]
Encoded date : UTC 2020-04-24 04:13:06
Writing application : v45.0.0 ('Heaven in Pennies') 32-bit
Writing library : libebml v1.3.10 + v1.5.2
Cover : Yes
Attachments : cover.jpg

Video
ID : 1
Format : AVC
Format/Info : Advanced Video Codec
Format profile : [email protected]
Format settings : CABAC / 4 Ref Frames
Format settings, CABAC : Yes
Format settings, Reference : 4 frames
Codec ID : V_MPEG4/ISO/AVC
Duration : 2 h 10 min
Bit rate : 10.1 Mb/s
Width : 1 920 pixels
Height : 1 020 pixels
Display aspect ratio : 1.882
Frame rate mode : Constant
Frame rate : 23.976 (24000/1001) FPS
Color space : YUV
Chroma subsampling : 4:2:0
Bit depth : 8 bits
Scan type : Progressive
Bits/(Pixel*Frame) : 0.216
Stream size : 9.26 GiB (92%)
Title : 1080p от FREEISLAND
Writing library : core 115 r1995 c1e60b9
Encoding settings : cabac=1 / ref=4 / deblock=1:-3:-3 / analyse=0x3:0x133 / me=umh / subme=7 / psy=1 / psy_rd=1.00:0.00 / mixed_ref=1 / me_range=48 / chroma_me=1 / trellis=2 / 8x8dct=1 / cqm=0 / deadzone=21,11 / fast_pskip=0 / chroma_qp_offset=-2 / threads=9 / sliced_threads=0 / nr=0 / decimate=1 / interlaced=0 / bluray_compat=0 / constrained_intra=0 / bframes=4 / b_pyramid=2 / b_adapt=1 / b_bias=0 / direct=1 / weightb=0 / open_gop=0 / weightp=2 / keyint=250 / keyint_min=23 / scenecut=40 / intra_refresh=0 / rc=2pass / mbtree=0 / bitrate=10120 / ratetol=1.0 / qcomp=1.00 / qpmin=0 / qpmax=69 / qpstep=2 / cplxblur=20.0 / qblur=0.5 / ip_ratio=1.40 / pb_ratio=1.30 / aq=1:1.00
Language : Chinese
Default : Yes
Forced : No
Color range : Limited
Color primaries : BT.709
Transfer characteristics : BT.709
Matrix coefficients : BT.709

Audio #1
ID : 2
Format : AC-3
Format/Info : Audio Coding 3
Commercial name : Dolby Digital
Codec ID : A_AC3
Duration : 2 h 10 min
Bit rate mode : Constant
Bit rate : 192 kb/s
Channel(s) : 2 channels
Channel layout : L R
Sampling rate : 48.0 kHz
Frame rate : 31.250 FPS (1536 SPF)
Compression mode : Lossy
Stream size : 180 MiB (2%)
Title : НТН
Language : Ukrainian
Service kind : Complete Main
Default : Yes
Forced : Yes

Audio #2
ID : 3
Format : AC-3
Format/Info : Audio Coding 3
Commercial name : Dolby Digital
Codec ID : A_AC3
Duration : 2 h 10 min
Bit rate mode : Constant
Bit rate : 640 kb/s
Channel(s) : 6 channels
Channel layout : L R C LFE Ls Rs
Sampling rate : 48.0 kHz
Frame rate : 31.250 FPS (1536 SPF)
Compression mode : Lossy
Delay relative to video : 83 ms
Stream size : 599 MiB (6%)
Title : Mandarin
Language : Chinese
Service kind : Complete Main
Default : No
Forced : No

Text
ID : 4
Format : VobSub
Muxing mode : zlib
Codec ID : S_VOBSUB
Codec ID/Info : Picture based subtitle format used on DVDs
Duration : 2 h 7 min
Bit rate : 5 897 b/s
Count of elements : 1232
Stream size : 5.36 MiB (0%)
Title : Mandarin
Language : Chinese
Default : No
Forced : No

Menu
00:00:00.000 : en:Chapter 01
00:06:12.455 : en:Chapter 02
00:12:11.021 : en:Chapter 03
00:19:32.004 : en:Chapter 04
00:26:16.366 : en:Chapter 05
00:32:03.713 : en:Chapter 06
00:37:22.615 : en:Chapter 07
00:46:12.144 : en:Chapter 08
00:52:56.298 : en:Chapter 09
01:01:31.020 : en:Chapter 10
01:07:01.350 : en:Chapter 11
01:11:54.518 : en:Chapter 12
01:17:24.473 : en:Chapter 13
01:30:02.355 : en:Chapter 14
01:36:56.685 : en:Chapter 15
01:44:24.549 : en:Chapter 16
01:52:48.470 : en:Chapter 17
01:58:56.587 : en:Chapter 18
02:01:01.796 : en:Chapter 19
02:05:04.538 : en:Chapter 20
02:10:56.265 : en:Chapter 21
Скріншоти



Джерело: &
Особиста оцінка: 10 - без зайвих вагань рекомендую всім!


Срібний реліз (на рейтинг впливає 50% завантаженого)
 Трекер:    Зареєстрований   

Завантажити / скачати фільм українською



відео для новачків



 Зареєстрований:   2020-04-24 07:54
 Розмір:   10.02 GB 
 Оцінка фільму:   8.2/10 (Голосів: 5)
   
Інші релізи
   Куля в голові (Bullet in the Head) / Die xue jie tou (1990) Remux 1080p Ukr/Chi | Sub Eng/Chi MakRA  0 / 0   17.51 GB   2019-11-17 19:59 
   Куля в голові / Die xue jie tou (1990) AVC Arsenfpu  5 / 0   2.28 GB   2019-11-16 15:55 
   Куля в голові / Die xue jie tou (1990) Breniak  2 / 0   1.45 GB   2012-08-27 22:37 
+380954897458 
VIP


З нами з: 02.06.17
Востаннє: 18.09.20
Повідомлень: 942

2020-04-24 22:29  
Мабуть найулюбленіший мій фільм Джона Ву.
Ваш часовий пояс: GMT + 2 Години

Нова тема   Відповісти