Поліція Парадайз (Сезон 1) / Paradise PD (Season 1) (2018) 1080p Ukr/Eng

Нові коментарі

Нова тема   Відповісти
Останній раз роздавалося Tyler (2021-04-22)
Автор Повідомлення
simpsonsua 
VIP


З нами з: 13.03.18
Востаннє: 10.04.21
Повідомлень: 357

2020-04-24 02:15  
Поліція Парадайз (Сезон 1) / Paradise PD (Season 1) (2018) 1080p Ukr/Eng




Жанр: комедія, чорний гумор, сатира
Країна: США



Кінокомпанія / телеканал: Damn! Show Productions, Bento Box Entertainment, Odenkirk Provissiero Entertainment / Netflix
Режисери/творці: Вако Оджин, Роджер Блек та інші.
Актори: Дена Снайдер, Седрик Ярбро, Девід Херман, Том Кенні, Сара Чок, Кайл Кінан та інші.

Сюжет:
Головні герої - дуже погані копи. Не в тому сенсі, що вони небезпечні та круті. Ні, вони в буквальному сенсі відверто лайнові поліцейські.


Перекладено та озвучено спеціально для simpsonsua.tv


Тривалість: 1 серія: ~ 28 хв. (цілком серій: 10)
Перелік серій:

01. Ласкаво просимо в Парадайз
02. Дупа на лінії
03. Чорний та голубий
04. Карла
05. Підземелля і драгнет
06. Знайомтесь: Ябовскі
07. Поліцейська академія
08. Цільова група
09. Пастка для батьків
10. Різдво в Парадайз
Якість: 1080p
Відео:
кодек:
розмір кадру: 1920 x 1080
бітрейт: ~ 2 000 кб/с

Аудіо # 1:
мова: українська
озвучення: багатоголосий закадровий
кодек: 5.1 | 2.0 [1 серія]
бітрейт: 448 кб/с | 192 кб/с [1 серія]

Аудіо # 2:
мова: англійська
переклад: оригінал
кодек: E- 5.1
бітрейт: 640 кб/с
Info
Код:
Format                      :
Format version              : Version 4
File size                   : 580 MiB
Duration                    : 27 min 12 s
Overall bit rate mode       : Variable
Overall bit rate            : 2 982 kb/s
Movie name                  : Поліція Парадайз / Paradise PD - S01E02 (2018) 1080p [Ukr.Eng] [simpsonsua.tv]
Encoded date                : UTC 2020-04-23 22:47:16
Writing application         : v6.8.0 ('Theme for Great Cities') 32bit built on Mar  2 2014 21:27:07
Writing library             : libebml v1.3.0 + v1.4.1

Video
ID                          : 1
Format                      : AVC
Format/Info                 : Advanced Video Codec
Format profile              : [email protected]
Format settings             : CABAC / 3 Ref Frames
Format settings, CABAC      : Yes
Format settings, Reference  : 3 frames
Codec ID                    : V_MPEG4/ISO/AVC
Duration                    : 27 min 12 s
Bit rate mode               : Variable
Bit rate                    : 1 834 kb/s
Nominal bit rate            : 1 960 kb/s
Maximum bit rate            : 2 940 kb/s
Width                       : 1 920 pixels
Height                      : 1 080 pixels
Display aspect ratio        : 16:9
Frame rate mode             : Constant
Frame rate                  : 23.976 (24000/1001) FPS
Color space                 : YUV
Chroma subsampling          : 4:2:0
Bit depth                   : 8 bits
Scan type                   : Progressive
Bits/(Pixel*Frame)          : 0.037
Stream size                 : 357 MiB (62%)
Writing library             : core 148 r2715 7e75228
Encoding settings           : cabac=1 / ref=3 / deblock=1:0:0 / analyse=0x1:0x111 / me=umh / subme=10 / psy=1 / psy_rd=1.00:0.00 / mixed_ref=1 / me_range=24 / chroma_me=1 / trellis=2 / 8x8dct=0 / cqm=0 / deadzone=21,11 / fast_pskip=1 / chroma_qp_offset=-2 / threads=8 / lookahead_threads=1 / sliced_threads=0 / nr=0 / decimate=1 / interlaced=0 / bluray_compat=0 / stitchable=1 / constrained_intra=0 / bframes=2 / b_pyramid=0 / b_adapt=2 / b_bias=0 / direct=3 / weightb=1 / open_gop=0 / weightp=2 / keyint=48 / keyint_min=25 / scenecut=0 / intra_refresh=0 / rc_lookahead=48 / rc=2pass / mbtree=1 / bitrate=1960 / ratetol=1.0 / qcomp=0.50 / qpmin=6 / qpmax=51 / qpstep=4 / cplxblur=20.0 / qblur=0.5 / vbv_maxrate=2940 / vbv_bufsize=3920 / nal_hrd=vbr / filler=0 / ip_ratio=1.40 / aq=1:1.00
Default                     : Yes
Forced                      : No

Audio #1
ID                          : 2
Format                      : AC-3
Format/Info                 : Audio Coding 3
Commercial name             : Dolby Digital
Codec ID                    : A_AC3
Duration                    : 27 min 12 s
Bit rate mode               : Constant
Bit rate                    : 448 kb/s
Channel(s)                  : 6 channels
Channel layout              : L R C LFE Ls Rs
Sampling rate               : 48.0 kHz
Frame rate                  : 31.250 FPS (1536 SPF)
Bit depth                   : 16 bits
Compression mode            : Lossy
Stream size                 : 87.2 MiB (15%)
Title                       : Українська
Language                    : Ukrainian
Service kind                : Complete Main
Default                     : Yes
Forced                      : No

Audio #2
ID                          : 3
Format                      : E-AC-3
Format/Info                 : Enhanced AC-3
Commercial name             : Dolby Digital Plus
Codec ID                    : A_EAC3
Duration                    : 27 min 12 s
Bit rate mode               : Constant
Bit rate                    : 640 kb/s
Channel(s)                  : 6 channels
Channel layout              : L R C LFE Ls Rs
Sampling rate               : 48.0 kHz
Frame rate                  : 31.250 FPS (1536 SPF)
Compression mode            : Lossy
Stream size                 : 125 MiB (21%)
Title                       : English
Language                    : English
Service kind                : Complete Main
Default                     : No
Forced                      : No
Скріншоти



Перекладено та озвучено спеціально для:


Авторський реліз (завантажувати можна без реєстрації)
 Трекер:    Зареєстрований   

Завантажити / скачати мультфільм українською



відео для новачків



 Зареєстрований:   2020-04-24 02:16
 Розмір:   5.91 GB 
 Оцінка мультсеріалу:   8/10 (Голосів: 9)
   
simpsonsua 
VIP


З нами з: 13.03.18
Востаннє: 10.04.21
Повідомлень: 357

2020-04-24 02:30  
Додано 1 сезон!

Бажаємо всім приємного перегляду!

xslim 
Відео Гуртом - фільмокрай
Відео Гуртом - фільмокрай


З нами з: 05.03.09
Востаннє: 23.04.21
Повідомлень: 1417

2020-04-28 18:19  
simpsonsua
третій день не можу завантажити в чому проблема

simpsonsua 
VIP


З нами з: 13.03.18
Востаннє: 10.04.21
Повідомлень: 357

2020-04-28 18:31  
xslim
Спробуйте зараз!

xslim 
Відео Гуртом - фільмокрай
Відео Гуртом - фільмокрай


З нами з: 05.03.09
Востаннє: 23.04.21
Повідомлень: 1417

2020-04-28 21:46  
не вантажить
(◔‿◔) 
Забанено
Забанено


З нами з: 18.04.20
Востаннє: 02.06.20
Повідомлень: 87

2020-04-28 21:49  
xslim
усе вантажить
глядіть на сайті, або чекайте коли хтось з білим ір приєднається

xslim 
Відео Гуртом - фільмокрай
Відео Гуртом - фільмокрай


З нами з: 05.03.09
Востаннє: 23.04.21
Повідомлень: 1417

2020-04-28 22:05  
значить буду чекати
Ваш часовий пояс: GMT + 2 Години

Нова тема   Відповісти