Смерть негідника / Mort d'un pourri (1977) AVC Ukr/Fre | sub Fre

Нові коментарі

Нова тема   Відповісти
Автор Повідомлення
Arsenfpu 
Відео Гуртом - фільмокрай
Відео Гуртом - фільмокрай


З нами з: 30.04.09
Востаннє: 06.07.20
Повідомлень: 7042

2020-04-24 00:19  
Смерть негідника / Mort d'un pourri (1977) AVC Ukr/Fre | sub Fre

Смерть негідника / Mort d'un pourri (1977) AVC Ukr/Fre | sub Fre


Жанр: кримінал, драма, трилер
Країна: Франція



Кінокомпанія: Adel Productions
Режисер: Жорж Лотнер
Актори: Ален Делон, Орнелла Муті, Стефан Одран та інші

Сюжет:
Ксав'є Марешаль цілком несподівано виявляється втягнутим в брудні політичні ігри. Його давній друг, депутат Національної асамблеї Франції Філіпп Дюбай, передає Ксав'є щоденник з компроматом на всіх багатих ділових людей країни... За романом Рафа Валле.


Тривалість: 02:03:36
Якість:
Відео:
кодек:
розмір кадру: 1 024 х 624
бітрейт: 2 299 кб/с

Аудіо # 1:
мова: українська
переклад: двоголосий закадровий ,
кодек: 2.0
бітрейт: 192 кб/с

Аудіо # 2:
мова: французька
переклад: оригінал
кодек: 2.0
бітрейт: 192 кб/с

Субтитри:
мова: французька
тип: програмні (м'які)
формат: *.srt
Скріншоти














Про файл
General
Unique ID : 212652135573755120307910106178459914263 (0x9FFB4FC2A7803F65CEF85D5645E9D017)
Complete name : C:\Mort d'un pourri (1977) [Ukr,Fre] AVC [Hurtom].
Format :
Format version : Version 4 / Version 2
File size : 2.32 GiB
Duration : 2 h 3 min
Overall bit rate : 2 685 kb/s
Movie name : Смерть негідника / Mort d'un pourri (1977)
Encoded date : UTC 2020-04-23 20:38:37
Writing application : v21.0.0 ('Tardigrades Will Inherit The Earth') 32-bit
Writing library : libebml v1.3.5 + v1.4.8
Cover : Yes
Attachments : cover.jpg

Video
ID : 1
Format : AVC
Format/Info : Advanced Video Codec
Format profile : [email protected]
Format settings, CABAC : Yes
Format settings, ReFrames : 4 frames
Codec ID : V_MPEG4/ISO/AVC
Duration : 2 h 3 min
Bit rate : 2 299 kb/s
Width : 1 024 pixels
Height : 624 pixels
Display aspect ratio : 16:10
Frame rate mode : Constant
Frame rate : 23.976 (24000/1001) FPS
Color space : YUV
Chroma subsampling : 4:2:0
Bit depth : 8 bits
Scan type : Progressive
Bits/(Pixel*Frame) : 0.150
Stream size : 1.98 GiB (86%)
Writing library : core 157 r2935 545de2f
Encoding settings : cabac=1 / ref=3 / deblock=1:-1:-1 / analyse=0x3:0x113 / me=hex / subme=7 / psy=1 / psy_rd=1.00:0.15 / mixed_ref=1 / me_range=16 / chroma_me=1 / trellis=1 / 8x8dct=1 / cqm=0 / deadzone=21,11 / fast_pskip=1 / chroma_qp_offset=-3 / threads=12 / lookahead_threads=2 / sliced_threads=0 / nr=0 / decimate=1 / interlaced=0 / bluray_compat=0 / constrained_intra=0 / bframes=3 / b_pyramid=2 / b_adapt=1 / b_bias=0 / direct=1 / weightb=1 / open_gop=0 / weightp=2 / keyint=240 / keyint_min=23 / scenecut=40 / intra_refresh=0 / rc_lookahead=40 / rc=2pass / mbtree=1 / bitrate=2299 / ratetol=1.0 / qcomp=0.60 / qpmin=0 / qpmax=69 / qpstep=4 / cplxblur=20.0 / qblur=0.5 / ip_ratio=1.40 / aq=1:1.00
Default : Yes
Forced : No

Audio #1
ID : 2
Format : AC-3
Format/Info : Audio Coding 3
Mode extension : CM (complete main)
Format settings, Endianness : Big
Codec ID : A_AC3
Duration : 2 h 3 min
Bit rate mode : Constant
Bit rate : 192 kb/s
Channel(s) : 2 channels
Channel positions : Front: L R
Sampling rate : 48.0 kHz
Frame rate : 31.250 FPS (1536 spf)
Compression mode : Lossy
Stream size : 170 MiB (7%)
Title : Інтер
Language : Ukrainian
Default : Yes
Forced : Yes

Audio #2
ID : 3
Format : AC-3
Format/Info : Audio Coding 3
Mode extension : CM (complete main)
Format settings, Endianness : Big
Codec ID : A_AC3
Duration : 2 h 3 min
Bit rate mode : Constant
Bit rate : 192 kb/s
Channel(s) : 2 channels
Channel positions : Front: L R
Sampling rate : 48.0 kHz
Frame rate : 31.250 FPS (1536 spf)
Compression mode : Lossy
Stream size : 170 MiB (7%)
Language : French
Default : No
Forced : No

Text
ID : 4
Format : UTF-8
Codec ID : S_TEXT/UTF8
Codec ID/Info : UTF-8 Plain Text
Duration : 2 h 1 min
Bit rate : 54 b/s
Count of elements : 1712
Stream size : 49.1 KiB (0%)
Language : French
Default : Yes
Forced : No
Джерело:
За запис з ТБ дякую пану xslim
Особиста оцінка: гарне кіно


Срібний реліз (на рейтинг впливає 50% завантаженого)
 Трекер:    Зареєстрований   

Завантажити / скачати фільм українською



відео для новачків



 Зареєстрований:   2020-04-24 00:19
 Розмір:   2.32 GB 
 Оцінка фільму:   8.2/10 (Голосів: 11)
   
Інші релізи
+380954897458 
VIP


З нами з: 02.06.17
Востаннє: 07.07.20
Повідомлень: 884

2020-04-24 01:52  
А чому Клауса Кінскі не відмітили? Happy Один з тих акторів, якого треба відмічати, навіть якщо в нього роль епізодична!
Ваш часовий пояс: GMT + 2 Години

Нова тема   Відповісти