Вбиваючи Єву (Сезон 3, серії 1-5) / Killing Eve (Season 3, episodes 1-5) (2020) 1080p Ukr/Eng | Sub Eng

Нові коментарі

Нова тема   Відповісти
Автор Повідомлення
dragheart 
Свій


З нами з: 27.01.16
Востаннє: 28.05.20
Повідомлень: 96

2020-04-23 13:04  
Вбиваючи Єву (Сезон 3, серії 1-5) / Killing Eve (Season 3, episodes 1-5) (2020) 1080p Ukr/Eng | Sub Eng

Вбиваючи Єву (Сезон 3, серії 1-5) / Killing Eve (Season 3, episodes 1-5) (2020) 1080p Ukr/Eng | Sub Eng


Альтернативний постер



Подяка за постери : mrgalser


Жанр: трилер, драма
Країна: Велика Британія



Кінокомпанія: Panorama Films, Sid Gentle Films
Режисер: Джон Іст, Деймон Томас
Актори: Сандра О, Джоді Комер, Фіона Шоу, Кім Бодніа, Оуен МакДоннел, Дарен Бойд

Сюжет:
У 3 сезоні Єва намагається повернутися до свого звичайного життя після того, як Вілланель практично застрелила її. Як і сама Вілланель - проте лише до того моменту, поки їм не зустрінеться хтось з минулого ... Тим часом Каролін повністю зосереджена на роботі, а Кенні шукає інформацію про дванадцять.


Тривалість: 1 серія: ~42:00 (цілком серій: 5/8)
Перелік серій
01. Slowly Slowly Catchy Monkey
02. Management Sucks
03. Meetings Have Biscuits
04. Still Got It
05. Are You from Pinner?
Якість:
Відео:
кодек:
розмір кадру: 1920 х 1080
бітрейт: 7 197 кб/с

Аудіо # 1:
мова: українська
переклад: багатоголосий закадровий | DubLiCat (Olegolas, Оля Ілєнко, Тетяна Рябова, Євгеній Тітомир)
кодек: 5.1
бітрейт: 384 кб/с

Аудіо # 2:
мова: англійська
переклад: оригінал
кодек: 5.1
бітрейт: 640 кб/с

Субтитри:
мова: англійська(SDH)
тип: програмні (м'які)
формат: *.srt



Шукайте нашу сторінку на FaceBook: DubLcat

ТРЕЙЛЕР
Info
General
Unique ID : 88784680423172628608197075220606288879 (0x42CB4EB5E4E4BD42445F6197A84503EF)
Complete name : F:\Killing.Eve.S03(DubLiCat)..1080p.Ukr.Eng\Killing.Eve.S03.E01(DubLiCat)..1080p.Ukr.Eng.
Format :
Format version : Version 4 / Version 2
File size : 2.40 GiB
Duration : 40mn 54s
Overall bit rate : 8 387 Kbps
Encoded date : UTC 2020-04-22 10:43:03
Writing application : v23.0.0 ('The Bride Said No') 64-bit
Writing library : libebml v1.3.6 + v1.4.9
DURATION : 00:40:54.464000000
NUMBER_OF_FRAMES : 76702
NUMBER_OF_BYTES : 117814272
_STATISTICS_WRITING_APP : v23.0.0 ('The Bride Said No') 64-bit
_STATISTICS_WRITING_DATE_UTC : 2020-04-22 10:43:03
_STATISTICS_TAGS : BPS DURATION NUMBER_OF_FRAMES NUMBER_OF_BYTES

Video
ID : 1
Format : AVC
Format/Info : Advanced Video Codec
Format profile : [email protected]
Format settings, CABAC : Yes
Format settings, ReFrames : 4 frames
Codec ID : V_MPEG4/ISO/AVC
Duration : 40mn 54s
Bit rate mode : Constant
Bit rate : 7 197 Kbps
Nominal bit rate : 10 000 Kbps
Width : 1 920 pixels
Height : 1 080 pixels
Display aspect ratio : 16:9
Frame rate : 25.000 fps
Color space : YUV
Chroma subsampling : 4:2:0
Bit depth : 8 bits
Scan type : Progressive
Bits/(Pixel*Frame) : 0.139
Stream size : 2.06 GiB (86%)
Language : English
Default : Yes
Forced : No
Color primaries : BT.709-5, BT.1361, IEC 61966-2-4, SMPTE RP177
Transfer characteristics : BT.709-5, BT.1361
Matrix coefficients : BT.709-5, BT.1361, IEC 61966-2-4 709, SMPTE RP177

Audio #1
ID : 2
Format : AC-3
Format/Info : Audio Coding 3
Mode extension : CM (complete main)
Codec ID : A_AC3
Duration : 40mn 54s
Bit rate mode : Constant
Bit rate : 384 Kbps
Channel(s) : 6 channels
Channel positions : Front: L C R, Side: L R, LFE
Sampling rate : 48.0 KHz
Bit depth : 16 bits
Compression mode : Lossy
Stream size : 112 MiB (5%)
Language : Ukrainian
Default : Yes
Forced : No

Audio #2
ID : 3
Format : E-AC-3
Format/Info : Audio Coding 3
Codec ID : A_EAC3
Duration : 40mn 54s
Bit rate mode : Constant
Bit rate : 640 Kbps
Channel(s) : 6 channels
Channel positions : Front: L C R, Side: L R, LFE
Sampling rate : 48.0 KHz
Compression mode : Lossy
Stream size : 187 MiB (8%)
Language : English
Default : No
Forced : No

Text
ID : 4
Format : UTF-8
Codec ID : S_TEXT/UTF8
Codec ID/Info : UTF-8 Plain Text
Title : SDH
Language : English
Default : No
Forced : No
Скріншоти




Джерело: &
Особиста оцінка: 10 - без зайвих вагань рекомендую всім!



Авторський реліз (завантажувати можна без реєстрації)
 Трекер:    Зареєстрований   

Завантажити / скачати серіал українською



відео для новачків



 Зареєстрований:   2020-05-21 14:20
 Розмір:   13.12 GB 
 Оцінка серіалу:   10/10 (Голосів: 10)
   
Vitt 
Свій


З нами з: 17.01.11
Востаннє: 29.05.20
Повідомлень: 122

2020-04-23 15:52  
А менший розмір?
dragheart 
Свій


З нами з: 27.01.16
Востаннє: 28.05.20
Повідомлень: 96

2020-04-23 21:13  
Цитата:
А менший розмір?

Меньший розмір не планували робити

Vitt 
Свій


З нами з: 17.01.11
Востаннє: 29.05.20
Повідомлень: 122

2020-04-23 23:35  
Шкода.
Тим більш, що я скачую цілий сезон, а вже потім дивлюся все разом.

mirekyiv 
Новенький


З нами з: 11.10.17
Востаннє: 28.04.20
Повідомлень: 2

2020-04-24 20:37  
Єва воскрела?))
dragheart 
Свій


З нами з: 27.01.16
Востаннє: 28.05.20
Повідомлень: 96

2020-05-01 12:41  
Додано 2-у серію
dragheart 
Свій


З нами з: 27.01.16
Востаннє: 28.05.20
Повідомлень: 96

2020-05-07 16:16  
Додано 3-ю серію
[email protected] 
Новенький


З нами з: 01.10.16
Востаннє: 18.05.20
Повідомлень: 1

2020-05-08 22:39  
а як же укр саби?
dragheart 
Свій


З нами з: 27.01.16
Востаннє: 28.05.20
Повідомлень: 96

2020-05-14 16:07  
Додано 4-у серію
dragheart 
Свій


З нами з: 27.01.16
Востаннє: 28.05.20
Повідомлень: 96

2020-05-21 14:24  
Додано 5-у серію
Ваш часовий пояс: GMT + 2 Години

Нова тема   Відповісти