Найманий убивця / Dip huet seung hung / The Killer (1989) AVC

Нові коментарі

Нова тема   Відповісти
Автор Повідомлення
PatataFrita 
Свій


З нами з: 05.04.20
Востаннє: 11.07.20
Повідомлень: 80

2020-04-23 11:15  
Найманий убивця / Dip huet seung hung / The Killer (1989) AVC

Найманий убивця / Dip huet seung hung / The Killer (1989) AVC


Жанр: екшн, кримінальний, драма
Країна: Гонконг



Кінокомпанія: Film Workshop, Golden Princess Film Production Limited, Long Shong Pictures, Magnum Films, Media Asia Group
Режисер: Джон Ву [John Woo]
Актори: Чоу Юнь-Фат [Yun-Fat Chow], Денні Лі [Danny Lee], Саллі Йен [Sally Yeh], Чу Конг [Kong Chu], Кеннет Цан [Kenneth Tsang], Баррі Вонг [Barry Wong], Паркман Вонг [Parkman Wong].

Сюжет:
Отримавши чергове завдання, найманий вбивця відправляється на справу в один з нічних ресторанів. Швидко прибравши боса і розчищаючи собі вихід від його охорони, він випадково ранить місцеву співачку, обпалюючи пострілом її очі. Вирішивши допомогти дівчині, він бере над нею опіку і йде на останню справу, щоб оплатити їй операцію.


Тривалість: 01:51:04
Якість: AVC
Відео:
кодек:
розмір кадру: 1024x554
бітрейт: 2900 кб/с

Аудіо:
мова: українська
переклад: багатоголосий закадровий
кодек: 2.0
бітрейт: 192 кб/с

Джерело озвучення:
Info
General
Unique ID : 172883705334412942037148177914964438238 (0x821030C49BECD5EC743E7755BF376CDE)
Complete name : D:\The Killer (1989) [ukr] AVC [Hurtom].
Format :
Format version : Version 4
File size : 2.40 GiB
Duration : 1 h 51 min
Overall bit rate : 3 093 kb/s
Movie name : The Killer (1989) [ukr] AVC [Hurtom]
Encoded date : UTC 2020-04-23 08:02:51
Writing application : v45.0.0 ('Heaven in Pennies') 32-bit
Writing library : libebml v1.3.10 + v1.5.2

Video
ID : 1
Format : AVC
Format/Info : Advanced Video Codec
Format profile : [email protected]
Format settings : CABAC / 8 Ref Frames
Format settings, CABAC : Yes
Format settings, Reference : 8 frames
Codec ID : V_MPEG4/ISO/AVC
Duration : 1 h 51 min
Bit rate : 2 900 kb/s
Width : 1 024 pixels
Height : 554 pixels
Display aspect ratio : 1.85:1
Frame rate mode : Constant
Frame rate : 23.976 FPS
Color space : YUV
Chroma subsampling : 4:2:0
Bit depth : 8 bits
Scan type : Progressive
Bits/(Pixel*Frame) : 0.213
Stream size : 2.25 GiB (94%)
Writing library : core 125 r2208 d9d2288
Encoding settings : cabac=1 / ref=8 / deblock=1:-2:-2 / analyse=0x3:0x133 / me=umh / subme=11 / psy=1 / psy_rd=1.00:0.15 / mixed_ref=1 / me_range=48 / chroma_me=0 / trellis=2 / 8x8dct=1 / cqm=0 / deadzone=21,11 / fast_pskip=0 / chroma_qp_offset=-3 / threads=6 / lookahead_threads=1 / sliced_threads=0 / nr=0 / decimate=0 / interlaced=0 / bluray_compat=0 / constrained_intra=0 / bframes=8 / b_pyramid=2 / b_adapt=2 / b_bias=0 / direct=3 / weightb=1 / open_gop=1 / weightp=2 / keyint=240 / keyint_min=23 / scenecut=40 / intra_refresh=0 / rc_lookahead=50 / rc=2pass / mbtree=1 / bitrate=2900 / ratetol=1.0 / qcomp=0.60 / qpmin=0 / qpmax=69 / qpstep=4 / cplxblur=20.0 / qblur=0.5 / ip_ratio=1.40 / aq=1:1.00
Language : English
Default : Yes
Forced : No

Audio
ID : 2
Format : AC-3
Format/Info : Audio Coding 3
Commercial name : Dolby Digital
Codec ID : A_AC3
Duration : 1 h 50 min
Bit rate mode : Constant
Bit rate : 192 kb/s
Channel(s) : 2 channels
Channel layout : L R
Sampling rate : 48.0 kHz
Frame rate : 31.250 FPS (1536 SPF)
Compression mode : Lossy
Stream size : 152 MiB (6%)
Language : Ukrainian
Service kind : Complete Main
Default : Yes
Forced : No
Скріншоти
Джерело: &
Подяка п. OlegCena за звукову доріжку і п. NemoInFire за зведення
Особиста оцінка: 10 - без зайвих вагань рекомендую всім!


Срібний реліз (на рейтинг впливає 50% завантаженого)
 Трекер:    Зареєстрований   

Завантажити / скачати фільм українською



відео для новачків



 Зареєстрований:   2020-04-23 11:15
 Розмір:   2.4 GB 
 Оцінка фільму:   10/10 (Голосів: 10)
   
Пекельний Вуйко 
Новенький


З нами з: 15.05.19
Востаннє: 11.07.20
Повідомлень: 6

2020-04-23 20:29  
Джон Ву тоді був неперевершеним! Гарна картина вийшла
kryk-v.ya. 
Попереджень: 1
Попереджень: 1 


З нами з: 14.02.14
Востаннє: 11.07.20
Повідомлень: 2113

2020-04-26 19:13  
Пекельний Вуйко написано:
Джон Ву тоді був неперевершеним!

і великий фантаст...так як в цьому фільмі після тисяч і тисяч куль герой продовжує стріляти, потім падає і знов шмаляє, я такого і не пригадаю ніде..."майстер" нічого не скажеш.

Ваш часовий пояс: GMT + 2 Години

Нова тема   Відповісти