Найманий убивця / Dip huet seung hung / The Killer (1989) 1080p Ukr/Chi

Нові коментарі

Нова тема   Відповісти
Останній раз роздавалося c.gemor (2020-09-29)
Автор Повідомлення
PatataFrita 
Свій


З нами з: 05.04.20
Востаннє: 08.09.20
Повідомлень: 83

2020-04-23 10:47  
Найманий убивця / Dip huet seung hung / The Killer (1989) 1080p Ukr/Chi

Найманий убивця / Dip huet seung hung / The Killer (1989) 1080p Ukr/Chi


Жанр: екшн, кримінальний, драма
Країна: Гонконг



Кінокомпанія: Film Workshop, Golden Princess Film Production Limited, Long Shong Pictures, Magnum Films, Media Asia Group
Режисер: Джон Ву [John Woo]
Актори: Чоу Юнь-Фат [Yun-Fat Chow], Денні Лі [Danny Lee], Саллі Йен [Sally Yeh], Чу Конг [Kong Chu], Кеннет Цан [Kenneth Tsang], Баррі Вонг [Barry Wong], Паркман Вонг [Parkman Wong].

Сюжет:
Отримавши чергове завдання, найманий вбивця відправляється на справу в один з нічних ресторанів. Швидко прибравши боса і розчищаючи собі вихід від його охорони, він випадково ранить місцеву співачку, обпалюючи пострілом її очі. Вирішивши допомогти дівчині, він бере над нею опіку і йде на останню справу, щоб оплатити їй операцію.


Тривалість: 01:51:04
Якість: 1080p
Відео:
кодек:
розмір кадру: 1920x1036
бітрейт: 13000 кб/с

Аудіо # 1:
мова: українська
переклад: багатоголосий закадровий
кодек: 2.0
бітрейт: 192 кб/с

Аудіо # 2:
мова: китайська
переклад: оригінал
кодек: 5.1
бітрейт: 640 кб/с

Джерело озвучення:
Info
General
Unique ID : 87087146214773450248294906132127326759 (0x41845FCFF0076353F920D64BA2A8A227)
Complete name : D:\The Killer (1989) [ukr] 1080p [Hurtom].
Format :
Format version : Version 4
File size : 10.7 GiB
Duration : 1 h 51 min
Overall bit rate : 13.8 Mb/s
Movie name : The Killer (1989) [ukr] 1080p [Hurtom]
Encoded date : UTC 2020-04-23 06:30:05
Writing application : v45.0.0 ('Heaven in Pennies') 32-bit
Writing library : libebml v1.3.10 + v1.5.2

Video
ID : 1
Format : AVC
Format/Info : Advanced Video Codec
Format profile : [email protected]
Format settings : CABAC / 4 Ref Frames
Format settings, CABAC : Yes
Format settings, Reference : 4 frames
Codec ID : V_MPEG4/ISO/AVC
Duration : 1 h 51 min
Bit rate : 13.0 Mb/s
Width : 1 920 pixels
Height : 1 036 pixels
Display aspect ratio : 1.85:1
Frame rate mode : Constant
Frame rate : 23.976 (24000/1001) FPS
Color space : YUV
Chroma subsampling : 4:2:0
Bit depth : 8 bits
Scan type : Progressive
Bits/(Pixel*Frame) : 0.273
Stream size : 10.1 GiB (94%)
Writing library : core 146 r2538 121396c
Encoding settings : cabac=1 / ref=4 / deblock=1:-2:-2 / analyse=0x3:0x133 / me=umh / subme=11 / psy=1 / psy_rd=1.00:0.00 / mixed_ref=1 / me_range=32 / chroma_me=1 / trellis=2 / 8x8dct=1 / cqm=0 / deadzone=21,11 / fast_pskip=0 / chroma_qp_offset=-2 / threads=12 / lookahead_threads=2 / sliced_threads=0 / nr=0 / decimate=0 / interlaced=0 / bluray_compat=0 / constrained_intra=0 / bframes=14 / b_pyramid=2 / b_adapt=2 / b_bias=0 / direct=3 / weightb=1 / open_gop=0 / weightp=2 / keyint=240 / keyint_min=23 / scenecut=40 / intra_refresh=0 / rc=2pass / mbtree=0 / bitrate=13000 / ratetol=1.0 / qcomp=0.60 / qpmin=0 / qpmax=69 / qpstep=4 / cplxblur=20.0 / qblur=0.5 / ip_ratio=1.40 / pb_ratio=1.30 / aq=2:0.80
Language : Chinese
Default : No
Forced : No

Audio #1
ID : 2
Format : AC-3
Format/Info : Audio Coding 3
Commercial name : Dolby Digital
Codec ID : A_AC3
Duration : 1 h 50 min
Bit rate mode : Constant
Bit rate : 192 kb/s
Channel(s) : 2 channels
Channel layout : L R
Sampling rate : 48.0 kHz
Frame rate : 31.250 FPS (1536 SPF)
Compression mode : Lossy
Stream size : 152 MiB (1%)
Language : Ukrainian
Service kind : Complete Main
Default : Yes
Forced : No

Audio #2
ID : 3
Format : AC-3
Format/Info : Audio Coding 3
Commercial name : Dolby Digital
Codec ID : A_AC3
Duration : 1 h 50 min
Bit rate mode : Constant
Bit rate : 640 kb/s
Channel(s) : 6 channels
Channel layout : L R C LFE Ls Rs
Sampling rate : 48.0 kHz
Frame rate : 31.250 FPS (1536 SPF)
Compression mode : Lossy
Stream size : 508 MiB (5%)
Language : Chinese
Service kind : Complete Main
Default : No
Forced : No
Скріншоти
Джерело: &
Подяка п. OlegCena за звукову доріжку і п. NemoInFire за зведення
Особиста оцінка: 10 - без зайвих вагань рекомендую всім!


Срібний реліз (на рейтинг впливає 50% завантаженого)
 Трекер:    Зареєстрований   

Завантажити / скачати фільм українською



відео для новачків



 Зареєстрований:   2020-04-23 10:47
 Розмір:   10.73 GB 
 Оцінка фільму:   10/10 (Голосів: 3)
   
russa1991 
Новенький


З нами з: 09.03.10
Востаннє: 30.09.20
Повідомлень: 20

2020-04-23 22:17  
Будь ласка, підписуйте, яка саме китайська. адже є мандаринський та кантонський діалекти. і вони дуже відрізняються.
Ваш часовий пояс: GMT + 2 Години

Нова тема   Відповісти