Смертельна битва. Легенди. Помста Скорпіона / Mortal Kombat Legends: Scorpions Revenge (2020) Remux 1080p Ukr/Eng | Sub Eng

Нові коментарі

Нова тема   Відповісти
Автор Повідомлення
MakRA 
VIP


З нами з: 11.11.18
Востаннє: 02.06.20
Повідомлень: 1081

2020-04-23 01:47  
Смертельна битва. Легенди. Помста Скорпіона / Mortal Kombat Legends: Scorpions Revenge (2020) Remux 1080p Ukr/Eng | Sub Eng


Український постер:

Жанр: анімація, фентезі, пригодницький, екшн
Країна: США



Кінокомпанія: DC Entertainment, Midway Games, Warner Bros. Animation
Режисер: Ітан Сполдинг [Ethan Spaulding]
Актори: Дженіфер Карпентер [Jennifer Carpenter], Джоул МакХейл [Joel McHale], Іке Амаді [Ike Amadi], Стів Блум [Steve Blum], Арт Батлер [Artt Butler], Дарін Ді Поль [Darin De Paul], Робін Аткінс [Robin Atkin Downes], Ґрей Ґріффін [Grey Griffin], Дейв Мітчел [Dave B. Mitchell]

Сюжет:
Ханзо Хасаші втрачає увесь свій клан та рідних під час нападу ворожого клану ніндзя, а сам потрапляє до Небуття, де на нього очікують вічні муки, без можливості назавжди померти. Щоб повернути родину і поквитатися з нападниками, він мусить взяти участь у Смертельній Битві, яка має вирішити долю людства.


Тривалість: 1:20:00
Якість: Remux 1080p
Відео:
кодек:
розмір кадру: 1920 х 1080
бітрейт: 14,9 Mб/с

Аудіо # 1:
мова: українська
переклад: багатоголосий закадровий
кодек: -HD MA 5.1
бітрейт: 2452 кб/с
Про озвучення:
Переклад: Aspid
Редакція і контроль якості: Вояка Schweik
Ролі озвучили: Lem0nka, Lomaev, Chewey
Робота зі звуком: Chewey

Постер: Otaku-First

Джерело: Dzuski.com.
Аудіо # 2:
мова: українська
переклад: багатоголосий закадровий
кодек: 5.1
бітрейт: 448 кб/с
Про озвучення:
Переклад: Aspid
Редакція і контроль якості: Вояка Schweik
Ролі озвучили: Lem0nka, Lomaev, Chewey
Робота зі звуком: Chewey

Постер: Otaku-First

Джерело: Dzuski.com.
Аудіо # 3:
мова: англійська
переклад: оригінал
кодек: -HD MA 5.1
бітрейт: 2398 кб/с

Аудіо # 4:
мова: англійська
переклад: оригінал
кодек: 5.1
бітрейт: 448 кб/с

Аудіо # 5:
мова: англійська
переклад: коментарі продюсера Рікі Моралеса та письменника Джеремі Адамса
кодек: 2.0
бітрейт: 192 кб/с

Субтитри # 1-2: (Full) | (SDH-Colored)
мова: англійська
тип: програмні (м'які)
формат: *.srt

Субтитри # 3: (SDH)
мова: англійська
тип: пререндерні
формат: *.pgs

Збережено оригінальні розділи, як на Blu-ray.
Info
General
Unique ID : 125829682417318699999950155759400177386 (0x5EA9EA52CE6E9E4CF9DBD29E8472CEEA)
Complete name : I:\+ Мультфільми в HD\Mortal Kombat. Legends. Scorpions Revenge (2020) Remux 1080p UkrEng Sub Eng [Hurtom].
Format :
Format version : Version 4
File size : 11.7 GiB
Duration : 1 h 19 min
Overall bit rate mode : Variable
Overall bit rate : 20.9 Mb/s
Movie name : Смертельна битва. Легенди. Помста Скорпіона / Mortal Kombat. Legends. Scorpions Revenge (2020) Remux 1080p Ukr/Eng | Sub Eng [Hurtom]
Encoded date : UTC 2020-04-23 05:25:50
Writing application : v44.0.0 ('Domino') 64-bit
Writing library : libebml v1.3.10 + v1.5.2
Cover : Yes
Attachments : cover.jpg

Video
ID : 1
Format : AVC
Format/Info : Advanced Video Codec
Format profile : [email protected]
Format settings : CABAC / 4 Ref Frames
Format settings, CABAC : Yes
Format settings, Reference : 4 frames
Codec ID : V_MPEG4/ISO/AVC
Duration : 1 h 19 min
Bit rate mode : Variable
Bit rate : 14.9 Mb/s
Maximum bit rate : 37.0 Mb/s
Width : 1 920 pixels
Height : 1 080 pixels
Display aspect ratio : 16:9
Frame rate mode : Constant
Frame rate : 23.976 (24000/1001) FPS
Color space : YUV
Chroma subsampling : 4:2:0
Bit depth : 8 bits
Scan type : Progressive
Bits/(Pixel*Frame) : 0.301
Stream size : 8.35 GiB (72%)
Title : Mortal Kombat. Legends. Scorpions Revenge (2020) Remux 1080p Ukr/Eng | Sub Eng [Hurtom]
Language : Ukrainian
Default : Yes
Forced : Yes

Audio #1
ID : 2
Format : XLL
Format/Info : Digital Theater Systems
Commercial name : -HD Master Audio
Codec ID : A_DTS
Duration : 1 h 19 min
Bit rate mode : Variable
Bit rate : 2 452 kb/s
Channel(s) : 6 channels
Channel layout : C L R Ls Rs LFE
Sampling rate : 48.0 kHz
Frame rate : 93.750 FPS (512 SPF)
Bit depth : 16 bits
Compression mode : Lossless
Stream size : 1.37 GiB (12%)
Title : MVO [DZUSKI.COM] -HD MA 5.1 | Lem0nka, Lomaev, Chewey
Language : Ukrainian
Default : Yes
Forced : Yes

Audio #2
ID : 3
Format : AC-3
Format/Info : Audio Coding 3
Commercial name : Dolby Digital
Codec ID : A_AC3
Duration : 1 h 19 min
Bit rate mode : Constant
Bit rate : 448 kb/s
Channel(s) : 6 channels
Channel layout : L R C LFE Ls Rs
Sampling rate : 48.0 kHz
Frame rate : 31.250 FPS (1536 SPF)
Compression mode : Lossy
Stream size : 256 MiB (2%)
Title : MVO [DZUSKI.COM] 5.1 | Lem0nka, Lomaev, Chewey
Language : Ukrainian
Service kind : Complete Main
Default : No
Forced : No

Audio #3
ID : 4
Format : XLL
Format/Info : Digital Theater Systems
Commercial name : -HD Master Audio
Codec ID : A_DTS
Duration : 1 h 19 min
Bit rate mode : Variable
Bit rate : 2 398 kb/s
Channel(s) : 6 channels
Channel layout : C L R Ls Rs LFE
Sampling rate : 48.0 kHz
Frame rate : 93.750 FPS (512 SPF)
Bit depth : 16 bits
Compression mode : Lossless
Stream size : 1.34 GiB (11%)
Title : Original -HD MA 5.1
Language : English
Default : No
Forced : No

Audio #4
ID : 5
Format : AC-3
Format/Info : Audio Coding 3
Commercial name : Dolby Digital
Codec ID : A_AC3
Duration : 1 h 19 min
Bit rate mode : Constant
Bit rate : 448 kb/s
Channel(s) : 6 channels
Channel layout : L R C LFE Ls Rs
Sampling rate : 48.0 kHz
Frame rate : 31.250 FPS (1536 SPF)
Compression mode : Lossy
Stream size : 256 MiB (2%)
Title : Original 5.1
Language : English
Service kind : Complete Main
Default : No
Forced : No

Audio #5
ID : 6
Format : AC-3
Format/Info : Audio Coding 3
Commercial name : Dolby Digital
Codec ID : A_AC3
Duration : 1 h 19 min
Bit rate mode : Constant
Bit rate : 192 kb/s
Channel(s) : 2 channels
Channel layout : L R
Sampling rate : 48.0 kHz
Frame rate : 31.250 FPS (1536 SPF)
Compression mode : Lossy
Stream size : 110 MiB (1%)
Title : Original 2.0 | Commentary by producer Rick Morales and writer Jeremy Adams
Language : English
Service kind : Complete Main
Default : No
Forced : No

Text #1
ID : 7
Format : UTF-8
Codec ID : S_TEXT/UTF8
Codec ID/Info : UTF-8 Plain Text
Duration : 1 h 17 min
Bit rate : 38 b/s
Count of elements : 868
Stream size : 21.6 KiB (0%)
Title : Eng (Full) SRT
Language : English
Default : No
Forced : No

Text #2
ID : 8
Format : UTF-8
Codec ID : S_TEXT/UTF8
Codec ID/Info : UTF-8 Plain Text
Duration : 1 h 17 min
Bit rate : 67 b/s
Count of elements : 1060
Stream size : 38.5 KiB (0%)
Title : Eng (SDH-Colored) SRT
Language : English
Default : No
Forced : No

Text #3
ID : 9
Format : PGS
Muxing mode : zlib
Codec ID : S_HDMV/PGS
Codec ID/Info : Picture based subtitle format used on BDs/HD-DVDs
Duration : 1 h 17 min
Bit rate : 28.6 kb/s
Count of elements : 2120
Stream size : 15.8 MiB (0%)
Title : Eng (SDH) PGS
Language : English
Default : No
Forced : No

Menu
00:00:00.000 : :Chapter 01
00:09:21.978 : :Chapter 02
00:19:53.567 : :Chapter 03
00:28:12.107 : :Chapter 04
00:35:54.277 : :Chapter 05
00:45:51.082 : :Chapter 06
00:55:18.690 : :Chapter 07
01:04:28.448 : :Chapter 08
01:13:56.724 : :Chapter 09
01:17:22.429 : :Chapter 10
Скріншоти
Джерело: &
Подяка колективу Dzuski.com за переклад та озвучення.
Також дякую п. Electroz за надані українські доріжки.
Особиста оцінка: 8 - мені сподобалося


Інші релізи 1080р 720p AVC AVI


Золотий реліз (завантажене не впливає на рейтинг)
 Трекер:    Зареєстрований   

Завантажити / скачати мультфільм українською



відео для новачків



 Зареєстрований:   2020-04-23 08:38
 Розмір:   11.68 GB 
 Оцінка мультфільму:   8.4/10 (Голосів: 9)
   
sandman 
VIP


З нами з: 12.08.12
Востаннє: 01.06.20
Повідомлень: 330

2020-04-26 20:54  
блін, панове, з фільмами ще фіг з ним, але на анімаційних треба писати вікові обмеження. Сів дивитись з дитиною, перші 3 хв - море м'яса, крові. Зробіть, будь ласка, в описі позначку MPAA R - 17+
Skrunja 
Свій


З нами з: 13.06.12
Востаннє: 31.05.20
Повідомлень: 98

2020-04-26 22:09  
sandman
Цитата:
блін, панове, з фільмами ще фіг з ним, але на анімаційних треба писати вікові обмеження. Сів дивитись з дитиною, перші 3 хв - море м'яса, крові. Зробіть, будь ласка, в описі позначку MPAA R - 17+

Так, це проблемка, іноді доводиться самому перемотувати і проглядати чи можна подивитись з дитиною, і не завжди на все в перемотці і попадеш, тому хотілося б бачити завжди вікове обмеження

igor911 
Модератор відео


З нами з: 18.01.08
Востаннє: 02.06.20
Повідомлень: 14754

2020-04-26 23:11  
Skrunja написано:
іноді доводиться самому перемотувати

пару кліків по кнопці imdb спрощують завдання - more --> Parents Guide - https://www.imdb.com/title/tt9580138/parentalguide

Ваш часовий пояс: GMT + 2 Години

Нова тема   Відповісти