Хлопці південного централу / Хлопці по сусідству / Хлопці з вулиць / Boyz n the Hood (1991) 720p Eng | Sub Ukr/Eng

Нові коментарі

Нова тема   Відповісти
Автор Повідомлення
Anonymous 







2020-04-22 23:52  
Хлопці південного централу / Хлопці по сусідству / Хлопці з вулиць / Boyz n the Hood (1991) 720p Eng | Sub Ukr/Eng



Жанр: кримінальний, драма
Країна: США



Кінокомпанія: Columbia Pictures
Режисер: Джон Сінглтон
Актори: К'юба Гудінг молодший, Айс Кьюб, Морріс Честнат, Лоренс Фішберн, Тайра Феррелл, Ніа Лонг

Сюжет:
Історія життя і дорослішання трьох молодих хлопців, які живуть у гетто районі Креншо міста Лос-Анджелес. Вони обговорюють питання раси, стосунків, насильства та перспектив майбутнього.


Тривалість: 01:52:08
Якість:
Відео:
кодек:
розмір кадру: 1280 х 696
бітрейт: 4525 кб/с

Аудіо:
мова: англійська
переклад: оригінал
кодек: 5.1
бітрейт: 640 кб/с

Субтитри:
мова: українська
тип: програмні (м'які)
формат: *.srt

Субтитри:
мова: англійська
тип: програмні (м'які)
формат: *.srt
Скріншоти















МІ
Video
ID : 1
Format : AVC
Format/Info : Advanced Video Codec
Format profile : [email protected]
Format settings : CABAC / 5 Ref Frames
Format settings, CABAC : Yes
Format settings, Reference : 5 frames
Codec ID : V_MPEG4/ISO/AVC
Duration : 1 h 52 min
Bit rate : 4 525 kb/s
Width : 1 280 pixels
Height : 696 pixels
Display aspect ratio : 1.85:1
Frame rate mode : Constant
Frame rate : 23.976 FPS
Color space : YUV
Chroma subsampling : 4:2:0
Bit depth : 8 bits
Scan type : Progressive
Bits/(Pixel*Frame) : 0.212
Stream size : 3.54 GiB (88%)
Writing library : core 130 r2273 b3065e6
Encoding settings : cabac=1 / ref=5 / deblock=1:-3:-3 / analyse=0x3:0x133 / me=umh / subme=11 / psy=1 / psy_rd=1.00:0.10 / mixed_ref=1 / me_range=32 / chroma_me=1 / trellis=2 / 8x8dct=1 / cqm=0 / deadzone=21,11 / fast_pskip=1 / chroma_qp_offset=-3 / threads=6 / lookahead_threads=1 / sliced_threads=0 / nr=0 / decimate=1 / interlaced=0 / bluray_compat=0 / constrained_intra=0 / bframes=8 / b_pyramid=2 / b_adapt=2 / b_bias=0 / direct=3 / weightb=1 / open_gop=0 / weightp=2 / keyint=250 / keyint_min=23 / scenecut=40 / intra_refresh=0 / rc_lookahead=60 / rc=2pass / mbtree=1 / bitrate=4525 / ratetol=1.0 / qcomp=0.60 / qpmin=0 / qpmax=69 / qpstep=4 / cplxblur=20.0 / qblur=0.5 / ip_ratio=1.40 / aq=1:1.00
Language : English
Default : Yes
Forced : No

Audio
ID : 2
Format : AC-3
Format/Info : Audio Coding 3
Commercial name : Dolby Digital
Codec ID : A_AC3
Duration : 1 h 52 min
Bit rate mode : Constant
Bit rate : 640 kb/s
Channel(s) : 6 channels
Channel layout : L R C LFE Ls Rs
Sampling rate : 48.0 kHz
Frame rate : 31.250 FPS (1536 SPF)
Compression mode : Lossy
Stream size : 513 MiB (12%)
Language : English
Service kind : Complete Main
Default : Yes
Forced : No

Text #1
ID : 3
Format : UTF-8
Codec ID : S_TEXT/UTF8
Codec ID/Info : UTF-8 Plain Text
Duration : 1 h 52 min
Bit rate : 91 b/s
Count of elements : 1404
Stream size : 75.5 KiB (0%)
Title : Netflix
Language : Ukrainian
Default : Yes
Forced : No

Text #2
ID : 4
Format : UTF-8
Codec ID : S_TEXT/UTF8
Codec ID/Info : UTF-8 Plain Text
Duration : 1 h 46 min
Bit rate : 59 b/s
Count of elements : 1315
Stream size : 46.9 KiB (0%)
Language : English
Default : No
Forced : No

Menu
00:00:00.000 : en:Start
00:06:55.957 : en:South Central
00:14:06.846 : en:Mr. Styles
00:20:13.838 : en:The Agreement
00:28:59.071 : en:"You Got Him."
00:37:52.395 : en:House Rules
00:41:19.769 : en:Burglary
00:49:49.153 : en:The Neighbors
00:55:08.347 : en:With Chris
01:01:43.491 : en:Facts of Life
01:11:42.632 : en:Seven Years Later
01:17:50.499 : en:Not Old, Better
01:25:58.320 : en:Tisha
01:32:34.090 : en:"I Lied to Pops."
01:36:02.966 : en:Mama Calls
01:42:23.804 : en:Lewis Crump

Джерело:
Особиста оцінка: 8 - мені сподобалося


 Трекер:    Зареєстрований   

Завантажити / скачати фільм українською



відео для новачків



 Зареєстрований:   2020-04-22 23:52
 Розмір:   4.04 GB 
 Оцінка фільму:   10/10 (Голосів: 1)
   
SurFutur 
VIP


З нами з: 12.03.15
Востаннє: 27.11.20
Повідомлень: 509

2020-04-23 01:58  
Ваш часовий пояс: GMT + 2 Години

Нова тема   Відповісти