Джеймс Бонд - Агент 007: Вид на вбивство / A View to a Kill (1985) 720p-mini 2xUkr/Eng

Нові коментарі

Нова тема   Відповісти
Автор Повідомлення
Drool 
VIP


З нами з: 17.04.10
Востаннє: 13.08.20
Повідомлень: 1544

2020-04-22 21:42  
Джеймс Бонд - Агент 007: Вид на вбивство / A View to a Kill (1985) 720p-mini 2xUkr/Eng

Джеймс Бонд - Агент 007: Вид на вбивство / A View to a Kill (1985) 720p-mini 2xUkr/Eng


Жанр: бойовик, пригодницький, трилер
Країна: США, Велика Британія



Кінокомпанія: Danjaq
Режисер: Джон Ґлен
Актори: Роджер Мур, Крістофер Вокен, Таня Робертс, Грейс Джонс, Патрік Мочай, Патрік Бошо, Девід Іп, Фіона Фуллертон, Меннінг Редвуд, Елісон Дуді та ін.

Сюжет:
Цього разу агент 007 б'ється відразу з двома негідниками, одного з них звуть Макс Зорін, він-продукт генетичних випробувань нацистів, у нього є помічниця на ім'я Мей-Дей, вона справжня екстрималка з нестримною тягою до злочинів.
Макс задумав знищити «Силіконову долину», центр науково-технічних досліджень США. Аби перешкодити злочинцям здійснити їх підступні плани, Бонду доводиться спочатку з'їздити в СРСР, де в умовах крайньої півночі його атакують озброєні до зубів бойовики оснащені снігоходами, вертольотами і навіть лижами, потім до Парижа, а потім в Сан-Франциско, де на усесвітньо відомому мосту «Золоті Ворота» і розвертаються події, від яких залежить майбутнє цілої держави.


Тривалість: 02:11:18
Якість: 720p-mini
Відео:
кодек:
розмір кадру: 1280x544
бітрейт: 2651 кб/с

Аудіо # 1:
мова: українська
переклад: багатоголосий закадровий
кодек: 2.0
бітрейт: 192 кб/с

Аудіо # 2:
мова: українська
переклад: багатоголосий закадровий
кодек: 2.0
бітрейт: 192 кб/с

Аудіо # 3:
мова: українська
переклад: оригінал
кодек: 2.0
бітрейт: 384 кб/с
Info
Код:
General
Unique ID                                : 326118513525977631711806298044356328378 (0xF558241CA18504C0B4F7A6ABC10F7BBA)
Complete name                            : /mnt/disk_e/Video/Films/A.View.to.a.Kill.1985..720p-mini.[2xUkr,Eng].UAGet.
Format                                   :
Format version                           : Version 4
File size                                : 3.14 GiB
Duration                                 : 2 h 11 min
Overall bit rate                         : 3 422 kb/s
Movie name                               : Вид на вбивство / A View to a Kill (1985) 720p-mini -=UAGet=- / Вид на вбивство / A View to a Kill (1985) 720p-mini -=UAGet=-
Released date                            : 1985
Encoded date                             : UTC 2020-04-22 18:09:46
Writing application                      : v43.0.0 ('The Quartermaster') 64-bit
Writing library                          : libebml v1.3.10 + v1.5.2
Cover                                    : Yes
Attachments                              : cover.jpg
ARTIST                                   : Роджер Мур, Крістофер Уокен, Таня Робертс, Грейс Джонс, Патрік Мочай та ін.
DIRECTOR                                 : Джон Ґлен
GENRE                                    : бойовик, трилер, пригоди

Video
ID                                       : 1
Format                                   : AVC
Format/Info                              : Advanced Video Codec
Format profile                           : [email protected]
Format settings                          : CABAC / 11 Ref Frames
Format settings, CABAC                   : Yes
Format settings, Reference frames        : 11 frames
Codec ID                                 : V_MPEG4/ISO/AVC
Duration                                 : 2 h 11 min
Bit rate                                 : 2 651 kb/s
Width                                    : 1 280 pixels
Height                                   : 544 pixels
Display aspect ratio                     : 2.35:1
Frame rate mode                          : Constant
Frame rate                               : 23.976 (24000/1001) FPS
Color space                              : YUV
Chroma subsampling                       : 4:2:0
Bit depth                                : 8 bits
Scan type                                : Progressive
Bits/(Pixel*Frame)                       : 0.159
Stream size                              : 2.43 GiB (77%)
Title                                    : Вид на вбивство / A View to a Kill (1985) 720p-mini -=UAGet=-
Writing library                          : core 142 r2389 956c8d8
Encoding settings                        : cabac=1 / ref=12 / deblock=1:-2:-1 / analyse=0x3:0x133 / me=umh / subme=11 / psy=1 / psy_rd=1,10:0,10 / mixed_ref=1 / me_range=64 / chroma_me=1 / trellis=2 / 8x8dct=1 / cqm=0 / deadzone=21,11 / fast_pskip=0 / chroma_qp_offset=-3 / threads=6 / lookahead_threads=1 / sliced_threads=0 / nr=0 / decimate=1 / interlaced=0 / bluray_compat=0 / constrained_intra=0 / bframes=12 / b_pyramid=1 / b_adapt=2 / b_bias=0 / direct=3 / weightb=1 / open_gop=0 / weightp=2 / keyint=240 / keyint_min=24 / scenecut=40 / intra_refresh=0 / rc=2pass / mbtree=0 / bitrate=2651 / ratetol=1,0 / qcomp=1,00 / qpmin=0 / qpmax=69 / qpstep=4 / cplxblur=20,0 / qblur=0,5 / ip_ratio=1,40 / pb_ratio=1,30 / aq=2:0,60
Default                                  : Yes
Forced                                   : Yes
Color range                              : Limited
Color primaries                          : BT.709
Transfer characteristics                 : BT.709
Matrix coefficients                      : BT.709

Audio #1
ID                                       : 2
Format                                   : AC-3
Format/Info                              : Audio Coding 3
Commercial name                          : Dolby Digital
Codec ID                                 : A_AC3
Duration                                 : 2 h 11 min
Bit rate mode                            : Constant
Bit rate                                 : 192 kb/s
Channel(s)                               : 2 channels
Channel layout                           : L R
Sampling rate                            : 48.0 kHz
Frame rate                               : 31.250 FPS (1536 SPF)
Compression mode                         : Lossy
Delay relative to video                  : -5 ms
Stream size                              : 180 MiB (6%)
Title                                    : MVO [1+1] (, 48000 Hz, stereo, fltp, 192 kb/s)
Language                                 : Ukrainian
Service kind                             : Complete Main
Default                                  : No
Forced                                   : No

Audio #2
ID                                       : 3
Format                                   : AC-3
Format/Info                              : Audio Coding 3
Commercial name                          : Dolby Digital
Codec ID                                 : A_AC3
Duration                                 : 2 h 11 min
Bit rate mode                            : Constant
Bit rate                                 : 192 kb/s
Channel(s)                               : 2 channels
Channel layout                           : L R
Sampling rate                            : 48.0 kHz
Frame rate                               : 31.250 FPS (1536 SPF)
Compression mode                         : Lossy
Delay relative to video                  : -5 ms
Stream size                              : 180 MiB (6%)
Title                                    : MVO [ICTV] (, 48000 Hz, stereo, fltp, 192 kb/s)
Language                                 : Ukrainian
Service kind                             : Complete Main
Default                                  : No
Forced                                   : No

Audio #3
ID                                       : 4
Format                                   : AC-3
Format/Info                              : Audio Coding 3
Commercial name                          : Dolby Digital
Codec ID                                 : A_AC3
Duration                                 : 2 h 11 min
Bit rate mode                            : Constant
Bit rate                                 : 384 kb/s
Channel(s)                               : 2 channels
Channel layout                           : L R
Sampling rate                            : 48.0 kHz
Frame rate                               : 31.250 FPS (1536 SPF)
Compression mode                         : Lossy
Delay relative to video                  : -5 ms
Stream size                              : 361 MiB (11%)
Title                                    : Original (, 48000 Hz, stereo, fltp, 384 kb/s)
Language                                 : English
Service kind                             : Complete Main
Default                                  : No
Forced                                   : No
Скріншоти
Реліз від:
Особиста оцінка: 8 - мені сподобалося


Срібний реліз (на рейтинг впливає 50% завантаженого)
 Трекер:    Зареєстрований   

Завантажити / скачати фільм українською



відео для новачків



 Зареєстрований:   2020-04-22 21:42
 Розмір:   3.14 GB 
 Оцінка фільму:   9.3/10 (Голосів: 4)
   
Drool 
VIP


З нами з: 17.04.10
Востаннє: 13.08.20
Повідомлень: 1544

2020-04-22 22:00  
Раптом знайшов у себе відкодований ще у 2016-му році відеоряд. Все ніяк не доходили руки синхронізувати аудіодоріжки. Та так і забув... Happy
drtato 
Поважний учасник


З нами з: 28.10.10
Востаннє: 10.08.20
Повідомлень: 168

2020-04-23 10:32  
Пане Drool , не зліться. Поясніть мені назву "Вид на вбивство". Що це? Сцена вбивства чи патент
на вбивство ? Буду Вам дуже вдячний.

Drool 
VIP


З нами з: 17.04.10
Востаннє: 13.08.20
Повідомлень: 1544

2020-04-23 17:49  
drtato написано:
Поясніть мені назву "Вид на вбивство". Що це? Сцена вбивства чи патент
на вбивство ? Буду Вам дуже вдячний.
Ну, мені важко пояснити ідею автора фільма Happy Думаю, фраза "вид на вбивство" можна порівняти з "вид на проживання". Тобто, це щось на кшталт дозволу чи щось в такому сенсі.
+380954897458 
Попереджень: 1
Попереджень: 1 


З нами з: 02.06.17
Востаннє: 11.08.20
Повідомлень: 925

2020-04-23 18:53  
drtato написано:
Поясніть мені назву "Вид на вбивство"

Насправді ця назва - не надто вдалий жарт, гра слів. Може англійською воно щось іще означає, хтозна.
У фільмі був такий діалог:
-Nice view. (Гарний краєвид)
-View to a Kill. (Краєвид на вбивство) Happy

drtato 
Поважний учасник


З нами з: 28.10.10
Востаннє: 10.08.20
Повідомлень: 168

2020-04-23 23:12  
Дякую хлопці за роз'яснення. Зрозумів те, що треба вчити англійську. Але в моєму віці ...
Drool 
VIP


З нами з: 17.04.10
Востаннє: 13.08.20
Повідомлень: 1544

2020-04-24 00:11  
drtato написано:
Але в моєму віці ...
Кажуть, добре допомагає регулярний тісний контакт з гарненькою носійкою потрібної мови Wink (1)
Ваш часовий пояс: GMT + 2 Години

Нова тема   Відповісти