Історія іграшок / Toy Story (1995) UHD Remux 2160p 4K HDR H.265 Ukr/Eng | Sub Ukr/Eng

Нові коментарі

Нова тема   Відповісти
Автор Повідомлення
Argentum 
VIP


З нами з: 25.09.11
Востаннє: 04.03.21
Повідомлень: 285

2020-04-22 19:35  
Історія іграшок / Toy Story (1995) UHD Remux 2160p 4K HDR H.265 Ukr/Eng | Sub Ukr/Eng

Історія іграшок / Toy Story (1995) UHD Remux 2160p 4K HDR H.265 Ukr/Eng | Sub Ukr/Eng


Жанр: анімація, пригодницький, сімейний
Країна: США



Кінокомпанія: Walt Disney Pictures та Pixar Animation Studios
Режисер: Джон Лассетер
Актори: Том Генкс, Тім Аллен, Дон Ріклес, Джим Варні, Велес Шон, Джон Ратзенбергер, Джо Ранфт та інші.

Сюжет:
Кожна дитина вірить, що коли вона залишає свої іграшки одні, вони починають займатися своїми справами. Цей мультиплікаційний фільм дозволяє переконатися їм в своїй правоті. Основна ідея фільму: кожна іграшка боїться набриднути, стати забутою, заміненою іншою, тому що весь сенс їхнього існування — приносити щастя своїм господарям.


Тривалість: 01:21:04
Якість: UHD Remux
Відео:
кодек: H.265 (HEVC)
розмір кадру: 3840 х 2160
бітрейт: 58.1 Мб/с
бітова глибина: 10 біт
кольоровий простір: BT.2020 (HDR)

Увага! Перед завантаженням переконайтесь, що ваш пристрій відтворення (та/або ПЗ) підтримує H.265 (HEVC)

Аудіо # 1:
мова: українська
переклад: професійний дубльований | студія LeDoyen
кодек: 5.1
бітрейт: 640 кб/с
Інформація про дубляж
Фільм дубльовано студією «Le Doyen» на замовлення «Disney Character Voices International» у 2009 році

Перекладач - Федір Сидорук
Режисер дубляжу - Ольга Чернілевська
Творчий консультант - Maciej Eyman

Ролі озвучували:
Вуді - Володимир Терещук
Базз Рятівник - Олексій Богданович
Рекс - Максим Кондратюк
Картоплина - Олег Стальчук
Жилка - Валерій Легін
Гам - Володимир Кокотунов
Бо Піп - Світлана Шекера
Сід - Денис Капустін
Місіс Девіс - Наталя Ярошенко
Енді - Михайло Жогло
Сержант - Борис Георгієвський
Ханна - Мар’яна Чернілевська
Диктор - Дмитро Гаврилов
Ленні - Сергій Малюга
Акула - Микола Карцев
Спелл - Сергій Солопай
Солдат - Дмитро Сова

Пісні виконують:
"Я твій навіки друг" - Дмитро Гарбуз
"Дивина" - Дмитро Гарбуз
"Я не здійму більше вітрил" - Дмитро Гарбуз
"Я твій навіки друг" (реприза) - Дмитро Гарбуз та Сергій Юрченко
Текст пісень - Роман Дяченко
Музичний керівник - Світлана Заря
Аудіо # 2:
мова: англійська
переклад: оригінал
кодек: -HD 7.1
бітрейт: 4 325 кб/с

Аудіо # 3:
мова: англійська
переклад: оригінал
кодек: 5.1
бітрейт: 640 кб/с

Субтитри 1-2: (форсовані, повні)
мова: українська
тип: програмні (м'які)
формат: *.srt

Субтитри 3:
мова: англійська
тип: програмні (м'які)
формат: *.srt
Info
General
Unique ID : 167780058059438452394744267638207973549 (0x7E394387A92CD8C9A11866EB619C88AD)
Complete name : Toy.Story.1995.Remux.2160p.Ukr.Eng.Hurtom.
Format :
Format version : Version 4
File size : 36.1 GiB
Duration : 1 h 21 min
Overall bit rate mode : Variable
Overall bit rate : 63.7 Mb/s
Movie name : Toy Story (1995)
Encoded date : UTC 2020-04-20 12:14:06
Writing application : v45.0.0 ('Heaven in Pennies') 64-bit
Writing library : libebml v1.3.10 + v1.5.2
Cover : Yes
Attachments : Cover.jpg

Video
ID : 1
Format : HEVC
Format/Info : High Efficiency Video Coding
Format profile : Main [email protected]@High
HDR format : SMPTE ST 2086, HDR10 compatible
Codec ID : V_MPEGH/ISO/HEVC
Duration : 1 h 21 min
Bit rate : 58.1 Mb/s
Width : 3 840 pixels
Height : 2 160 pixels
Display aspect ratio : 16:9
Frame rate mode : Constant
Frame rate : 23.976 (24000/1001) FPS
Color space : YUV
Chroma subsampling : 4:2:0 (Type 2)
Bit depth : 10 bits
Bits/(Pixel*Frame) : 0.292
Stream size : 32.9 GiB (91%)
Title : HEVC 3840*2160 HDR10 @ 58.1 Mb/s
Writing library : ATEME Titan File 3.9.0 (4.9.0.0)
Language : Multiple languages
Default : Yes
Forced : Yes
Color range : Limited
Color primaries : BT.2020
Transfer characteristics : PQ
Matrix coefficients : BT.2020 non-constant
Mastering display color primaries : Display P3
Mastering display luminance : min: 0.0000 cd/m2, max: 1000 cd/m2

Audio #1
ID : 2
Format : AC-3
Format/Info : Audio Coding 3
Commercial name : Dolby Digital
Codec ID : A_AC3
Duration : 1 h 21 min
Bit rate mode : Constant
Bit rate : 640 kb/s
Channel(s) : 6 channels
Channel layout : L R C LFE Ls Rs
Sampling rate : 48.0 kHz
Frame rate : 31.250 FPS (1536 SPF)
Compression mode : Lossy
Delay relative to video : 480 ms
Stream size : 371 MiB (1%)
Title : AC-3 5.1 @ 640 kb/s
Language : Ukrainian
Service kind : Complete Main
Default : Yes
Forced : Yes

Audio #2
ID : 3
Format : XLL
Format/Info : Digital Theater Systems
Commercial name : -HD Master Audio
Codec ID : A_DTS
Duration : 1 h 21 min
Bit rate mode : Variable
Bit rate : 4 325 kb/s
Channel(s) : 8 channels
Channel layout : C L R LFE Lb Rb Lss Rss
Sampling rate : 48.0 kHz
Frame rate : 93.750 FPS (512 SPF)
Bit depth : 24 bits
Compression mode : Lossless
Stream size : 2.45 GiB (7%)
Title : -HD MA 7.1 @ 4 325 kb/s
Language : English
Default : No
Forced : No

Audio #3
ID : 4
Format : AC-3
Format/Info : Audio Coding 3
Commercial name : Dolby Digital
Codec ID : A_AC3
Duration : 1 h 21 min
Bit rate mode : Constant
Bit rate : 640 kb/s
Channel(s) : 6 channels
Channel layout : L R C LFE Ls Rs
Sampling rate : 48.0 kHz
Frame rate : 31.250 FPS (1536 SPF)
Compression mode : Lossy
Stream size : 371 MiB (1%)
Title : AC-3 5.1 @ 640 kb/s
Language : English
Service kind : Complete Main
Default : No
Forced : No

Text #1
ID : 5
Format : UTF-8
Codec ID : S_TEXT/UTF8
Codec ID/Info : UTF-8 Plain Text
Duration : 1 h 16 min
Bit rate : 0 b/s
Count of elements : 10
Stream size : 352 Bytes (0%)
Title : Forced
Language : Ukrainian
Default : Yes
Forced : Yes

Text #2
ID : 6
Format : UTF-8
Codec ID : S_TEXT/UTF8
Codec ID/Info : UTF-8 Plain Text
Duration : 1 h 18 min
Bit rate : 106 b/s
Count of elements : 1137
Stream size : 60.7 KiB (0%)
Title : Full
Language : Ukrainian
Default : No
Forced : No

Text #3
ID : 7
Format : UTF-8
Codec ID : S_TEXT/UTF8
Codec ID/Info : UTF-8 Plain Text
Duration : 1 h 18 min
Bit rate : 71 b/s
Count of elements : 1185
Stream size : 40.9 KiB (0%)
Title : Full
Language : English
Default : No
Forced : No

Menu
00:00:00.000 : en:Chapter 01
00:02:03.081 : en:Chapter 02
00:04:00.949 : en:Chapter 03
00:06:34.852 : en:Chapter 04
00:09:20.101 : en:Chapter 05
00:14:17.815 : en:Chapter 06
00:20:10.959 : en:Chapter 07
00:22:18.045 : en:Chapter 08
00:24:25.422 : en:Chapter 09
00:26:02.060 : en:Chapter 10
00:29:29.768 : en:Chapter 11
00:30:09.849 : en:Chapter 12
00:35:10.399 : en:Chapter 13
00:39:26.238 : en:Chapter 14
00:43:00.286 : en:Chapter 15
00:43:44.163 : en:Chapter 16
00:46:26.533 : en:Chapter 17
00:47:21.004 : en:Chapter 18
00:49:08.946 : en:Chapter 19
00:51:08.982 : en:Chapter 20
00:53:50.769 : en:Chapter 21
00:56:24.381 : en:Chapter 22
00:57:15.598 : en:Chapter 23
01:01:41.698 : en:Chapter 24
01:02:50.933 : en:Chapter 25
01:04:49.927 : en:Chapter 26
01:07:59.492 : en:Chapter 27
01:13:11.136 : en:Chapter 28
01:15:40.827 : en:Chapter 29
01:17:09.207 : en:Chapter 30
Скріншоти







Джерело:
Особиста оцінка: 8 - мені сподобалося


Золотий реліз (завантажене не впливає на рейтинг)
 Трекер:    Зареєстрований   

Завантажити / скачати мультфільм українською



відео для новачків



 Зареєстрований:   2020-04-24 12:06
 Розмір:   36.11 GB 
 Оцінка мультфільму:   10/10 (Голосів: 4)
   
Інші релізи
   Історія іграшок / Toy Story (1995) 1080p Ukr/Eng SainTManiac  8 / 0   5.89 GB   2010-06-14 12:20 
   Історія іграшок / Toy Story (1995) Ukr/Eng | Sub Ukr/Eng RB26DETT  7 / 0   1.46 GB   2010-05-18 23:09 
bot 
робот


З нами з: 30.09.07
Востаннє: 26.05.05
Повідомлень: 27309

2020-04-22 19:35  
Тему перенесено з Мультфільми в HD до форуму Анонси релізів


Argentum

Graviller123 
Свій


З нами з: 26.08.15
Востаннє: 27.02.21
Повідомлень: 100

2020-04-23 10:06  
хм, а як випустили 4К, якщо воно робилося з самого початку як DVD
(◔‿◔) 
Забанено
Забанено


З нами з: 18.04.20
Востаннє: 02.06.20
Повідомлень: 87

2020-04-23 16:05  
Graviller123 написано:
хм, а як випустили 4К, якщо воно робилося з самого початку як DVD

з смого початку його показували на півці

bot 
робот


З нами з: 30.09.07
Востаннє: 26.05.05
Повідомлень: 27309

2020-04-24 12:05  
Тему перенесено з Анонси релізів до форуму Мультфільми в HD


Argentum

Ваш часовий пояс: GMT + 2 Години

Нова тема   Відповісти