Сумна історія / Blue Story (2019) 1080p Eng | sub Ukr

Нові коментарі

Нова тема   Відповісти
Останній раз роздавалося Prime.Introvert (2020-11-29)
Автор Повідомлення
killer2015 
Поважний учасник


З нами з: 30.01.15
Востаннє: 29.11.20
Повідомлень: 195

2020-04-22 18:43  
Сумна історія / Blue Story (2019) 1080p Eng | sub Ukr

Сумна історія / Blue Story (2019) 1080p Eng | sub Ukr


Жанр: драма, кримінал
Країна: Великобританія

Режисер: Rapman
Актори: Стівен Одубола, Майкл Уорд, Рохан Недди, Кадим Рамсей, Халі Бест, Джуніор Афолабі Салокун, Карла-Симон Спенс, Ерік Кофі-Абрефа, Шон Сагар, Джо Мартін

Сюжет:
Кращі друзі Тіммі і Марко вчаться в одній школі в Пекхемі і живуть в сусідніх лондонських районах. Коли один з шкільних друзів Тіммі б'є Марка, два старих приятеля виявляються на по різні сторони нескінченного бандитського протиборства, в якому немає переможців, а є тільки жертви.


Тривалість: 01:31:40
Якість:
Відео:
кодек:
розмір кадру: 1916 х 798
бітрейт: 4 542 кб/с

Аудіо:
мова: англійська
переклад: оригінал
кодек: 5.1
бітрейт: 384 кб/с

Субтитри:
мова: українська офіційні (переклад Анастасія Жищинська)
тип: програмні (м'які)
формат: *.srt
МедіаІнфо
General
Unique ID : 144936139321922893096629566588210388762 (0x6D09AF61092323CE07BEBA07D05C1F1A)
Complete name : G:\Фільми\Blue.Story.2019.1080p..H264.-EVO[TGx]\Blue.Story.2019.1080p..H264.-EVO.
Format :
Format version : Version 4
File size : 3.15 GiB
Duration : 1 h 31 min
Overall bit rate : 4 926 kb/s
Encoded date : UTC 2020-04-12 23:06:40
Writing application : v35.0.0 ('All The Love In The World') 64-bit
Writing library : libebml v1.3.9 + v1.5.2

Video
ID : 2
Format : AVC
Format/Info : Advanced Video Codec
Format profile : [email protected]
Format settings : CABAC / 5 Ref Frames
Format settings, CABAC : Yes
Format settings, Reference frames : 5 frames
Codec ID : V_MPEG4/ISO/AVC
Duration : 1 h 31 min
Bit rate : 4 542 kb/s
Width : 1 916 pixels
Height : 798 pixels
Display aspect ratio : 2.40:1
Frame rate mode : Constant
Frame rate : 23.976 FPS
Color space : YUV
Chroma subsampling : 4:2:0
Bit depth : 8 bits
Scan type : Progressive
Bits/(Pixel*Frame) : 0.124
Stream size : 2.91 GiB (92%)
Language : English
Default : Yes
Forced : No
Color range : Limited
Color primaries : BT.709
Transfer characteristics : BT.709
Matrix coefficients : BT.709

Audio
ID : 1
Format : AC-3
Format/Info : Audio Coding 3
Commercial name : Dolby Digital
Codec ID : A_AC3
Duration : 1 h 31 min
Bit rate mode : Constant
Bit rate : 384 kb/s
Channel(s) : 6 channels
Channel layout : L R C LFE Ls Rs
Sampling rate : 48.0 kHz
Frame rate : 31.250 FPS (1536 SPF)
Compression mode : Lossy
Delay relative to video : -43 ms
Stream size : 251 MiB (8%)
Language : English
Service kind : Complete Main
Default : Yes
Forced : No
Скріншоти



Джерело:


 Трекер:    Зареєстрований   

Завантажити / скачати фільм українською



відео для новачків



 Зареєстрований:   2020-04-22 18:43
 Розмір:   3.15 GB 
 Оцінка фільму:   10/10 (Голосів: 5)
   
Інші релізи
tpolit 
Попереджень: 1
Попереджень: 1 


З нами з: 10.01.15
Востаннє: 30.11.20
Повідомлень: 638

2020-04-23 15:12  
Як на мене, вона зовсім не блакитна Wide grin
Electroz 
Відео Гуртом - підтримка та поширення
Відео Гуртом - підтримка та поширення


З нами з: 18.09.14
Востаннє: 29.11.20
Повідомлень: 4215

2020-04-23 15:26  
killer2015 написано:
Блакитна історія

Назва вказана не вірна.

Цитата:
65
00:02:58,303 --> 00:02:59,888
СУМНА ІСТОРІЯ

killer2015 
Поважний учасник


З нами з: 30.01.15
Востаннє: 29.11.20
Повідомлень: 195

2020-04-23 19:25  
Дякую. Замінив, хоча як на мене -blue- в перекладі далеко не -сум-
Ваш часовий пояс: GMT + 2 Години

Нова тема   Відповісти