Король бельгійців / King of the Belgians (2016) 720p Eng | sub Ukr

Нові коментарі

Нова тема   Відповісти
Автор Повідомлення
Anonymous 







2020-04-22 17:25  
Король бельгійців / King of the Belgians (2016) 720p Eng | sub Ukr

Король бельгійців / King of the Belgians (2016) 720p Eng | sub Ukr


Жанр: комедія, драма
Країна: Бельгія, Нідерланди, Болгарія



Кінокомпанія: Bo Films, Entre Chien et Loup, Topkapi Films
Режисер: Петер Бросенс, Джессіка Хоуп Вудворт
Актори: Пітер Ван ден Бегін, Люсі Дебай, Тітус Де Вогдт, Бруно Георіс, Пітер Ван ден Хоувен

Сюжет:
Король Бельгії Ніколас III любить свою країну, але деякі бельгійці не відповідають йому взаємністю. Щоб посилити авторитет монарха вирішено зняти фільм про королівський візит до Туреччини, проте у розпал зйомок з батьківщини приходять тривожні вісті: Бельгія на межі розколу. Ніколас зобов'язаний терміново врятувати Бельгію від сепаратизму і закінчити зйомки фільму, але, як на зло, всі польоти скасовані через бурю. Королю і його свиті доведеться рухатися сушею, перетинаючи нелегально численні балканські кордони, дегустуючи йогурти і відбиваючись від сербських снайперів. Здається, замість панегірика бельгійці знімуть неймовірний роуд-муві, який змінить всіх, – особливо розквітне король!


Тривалість: 01:30:03
Якість:
Відео:
кодек:
розмір кадру: 1280 х 720
бітрейт: 3000 кб/с

Аудіо:
мова: англійська, фламандська, французька, болгарська
переклад: оригінал
кодек: 2.0
бітрейт: 129 кб/с

Субтитри:
мова: українська
тип: вбудовані (жорсткі)
MI
Код:
General
Unique ID                                : 295850658534245611702688537689705339160 (0xDE92C3A4D32DE8EB98A2A27C5A72D918)
Complete name                            : King of the Belgians (2016) 720p [Eng_sub_Ukr] [Hurtom].
Format                                   :
Format version                           : Version 4
File size                                : 1.90 GiB
Duration                                 : 1 h 30 min
Overall bit rate                         : 3 022 kb/s
Movie name                               : Король бельгійців (2016)
Encoded date                             : UTC 2020-04-22 14:55:59
Writing application                      : v30.1.0 ('Forever And More') 64-bit
Writing library                          : libebml v1.3.6 + v1.4.9
Cover                                    : Yes
Attachments                              : cover.jpg

Video
ID                                       : 1
Format                                   : AVC
Format/Info                              : Advanced Video Codec
Format profile                           : [email protected]
Format settings                          : CABAC / 4 Ref Frames
Format settings, CABAC                   : Yes
Format settings, ReFrames                : 4 frames
Codec ID                                 : V_MPEG4/ISO/AVC
Duration                                 : 1 h 30 min
Bit rate                                 : 3 000 kb/s
Width                                    : 1 280 pixels
Height                                   : 720 pixels
Display aspect ratio                     : 16:9
Frame rate mode                          : Constant
Frame rate                               : 25.000 FPS
Color space                              : YUV
Chroma subsampling                       : 4:2:0
Bit depth                                : 8 bits
Scan type                                : Progressive
Bits/(Pixel*Frame)                       : 0.130
Stream size                              : 1.82 GiB (96%)
Writing library                          : core 158 r2984 3759fcb
Encoding settings                        : cabac=1 / ref=1 / deblock=1:0:0 / analyse=0x3:0x132 / me=hex / subme=6 / psy=1 / psy_rd=1.00:0.00 / mixed_ref=0 / me_range=16 / chroma_me=1 / trellis=1 / 8x8dct=1 / cqm=0 / deadzone=21,11 / fast_pskip=1 / chroma_qp_offset=-2 / threads=6 / lookahead_threads=1 / sliced_threads=0 / nr=0 / decimate=1 / interlaced=0 / bluray_compat=0 / constrained_intra=0 / bframes=3 / b_pyramid=2 / b_adapt=1 / b_bias=0 / direct=1 / weightb=1 / open_gop=0 / weightp=1 / keyint=250 / keyint_min=25 / scenecut=40 / intra_refresh=0 / rc_lookahead=30 / rc=abr / mbtree=1 / bitrate=3000 / ratetol=1.0 / qcomp=0.60 / qpmin=3 / qpmax=51 / qpstep=4 / vbv_maxrate=6000 / vbv_bufsize=6000 / nal_hrd=none / filler=0 / ip_ratio=1.40 / aq=1:1.00
Language                                 : English
Default                                  : Yes
Forced                                   : No

Audio
ID                                       : 2
Format                                   : LC
Format/Info                              : Advanced Audio Codec Low Complexity
Codec ID                                 : A_AAC-2
Duration                                 : 1 h 30 min
Bit rate                                 : 129 kb/s
Channel(s)                               : 2 channels
Channel layout                           : L R
Sampling rate                            : 48.0 kHz
Frame rate                               : 46.875 FPS (1024 SPF)
Compression mode                         : Lossy
Delay relative to video                  : -80 ms
Stream size                              : 82.8 MiB (4%)
Language                                 : English
Default                                  : Yes
Forced                                   : No

Скріншоти





Джерело:


 Трекер:    Зареєстрований   

Завантажити / скачати фільм українською



відео для новачків



 Зареєстрований:   2020-04-22 17:25
 Розмір:   1.9 GB 
 Оцінка фільму:   10/10 (Голосів: 7)
   
dtm 
Свій


З нами з: 02.01.09
Востаннє: 26.11.20
Повідомлень: 68

2020-04-28 12:33  
О, класно, що хтось завантажив! Крутий фільм, дуже
yurekkk 
Свій


З нами з: 11.12.12
Востаннє: 28.11.20
Повідомлень: 105

2020-05-18 19:18  
Дуже гарний фільм. Дякую!
Ваш часовий пояс: GMT + 2 Години

Нова тема   Відповісти