Потоп / Potop (1974) AVC Ukr/Pol

Нові коментарі

Нова тема   Відповісти
Автор Повідомлення
Arsenfpu 
Відео Гуртом - фільмокрай
Відео Гуртом - фільмокрай


З нами з: 30.04.09
Востаннє: 08.08.20
Повідомлень: 7126

2020-04-22 12:52  
Потоп / Potop (1974) AVC Ukr/Pol

Потоп / Potop (1974) AVC Ukr/Pol


Жанр: історичний, драма, пригодницький
Країна: Польща, СРСР



Кінокомпанія: PRF "Zespol Filmowy", Бєларусьфільм.
Режисер: Єжи Гоффман
Актори: Даніель Ольбрихський, Малгожата Браунек, Тадеуш Ломницький, Казімєж Віхняж, Владислав Ханца, Лежек Тележинський

Сюжет:
За романом Генріка Сенкевича. Епічна панорама, охоплює період польсько-шведської війни 1655-1660 рр.. На тлі історичних подій йде розповідь про долю молодого хорунжого Анджея Кмітіца, спершу знаменитого не стільки своєю військовою доблестю, скільки буйствами і розбоєм, а потім відзначився надзвичайною мужністю в битвах із загарбниками.

Екранізація другого роману трилогії Сенкевича ("Вогнем і мечем", "Потоп", "Пан Володиєвський") . Що цікаво, Hoffman є режисером фільмів по всіх трьох романах, але хронологічно екранізація почалася з "Пан Володиєвський " (1968) , потім "Потоп", і "Вогнем і мечем " (1999).


Тривалість: 04:46:41
Якість:
Відео:
кодек:
розмір кадру: 1 024 х 432
бітрейт: 2 300 кб/с

Аудіо # 1:
мова: українська
переклад: багатоголосий закадровий
кодек: 2.0
бітрейт: 192 кб/с

Аудіо # 2:
мова: польська
переклад: оригінал
кодек: 2.0
бітрейт: 192 кб/с

Примітка: є ще озвучення від КІТ для телеканалу Перший, але підганяти його під це відео марна справа та й якість звуку там не дуже
Скріншоти














Про файл
General
Unique ID : 139242859385661096279122696821605592397 (0x68C133019BCA3E91DDF5EB6D39DAED4D)
Format :
Format version : Version 4 / Version 2
File size : 5.38 GiB
Duration : 4 h 46 min
Overall bit rate : 2 686 kb/s
Movie name : Потоп / Potop (1973)
Encoded date : UTC 2020-04-28 03:51:38
Writing application : v21.0.0 ('Tardigrades Will Inherit The Earth') 32-bit
Writing library : libebml v1.3.5 + v1.4.8
Cover : Yes
Attachments : cover.jpg

Video
ID : 1
Format : AVC
Format/Info : Advanced Video Codec
Format profile : [email protected]
Format settings, CABAC : Yes
Format settings, ReFrames : 4 frames
Codec ID : V_MPEG4/ISO/AVC
Duration : 4 h 46 min
Bit rate : 2 300 kb/s
Width : 1 024 pixels
Height : 432 pixels
Display aspect ratio : 2.40:1
Frame rate mode : Constant
Frame rate : 25.000 FPS
Color space : YUV
Chroma subsampling : 4:2:0
Bit depth : 8 bits
Scan type : Progressive
Bits/(Pixel*Frame) : 0.208
Stream size : 4.61 GiB (86%)
Writing library : core 157 r2935 545de2f
Encoding settings : cabac=1 / ref=3 / deblock=1:-1:-1 / analyse=0x3:0x113 / me=hex / subme=7 / psy=1 / psy_rd=1.00:0.15 / mixed_ref=1 / me_range=16 / chroma_me=1 / trellis=1 / 8x8dct=1 / cqm=0 / deadzone=21,11 / fast_pskip=1 / chroma_qp_offset=-3 / threads=12 / lookahead_threads=2 / sliced_threads=0 / nr=0 / decimate=1 / interlaced=0 / bluray_compat=0 / constrained_intra=0 / bframes=3 / b_pyramid=2 / b_adapt=1 / b_bias=0 / direct=1 / weightb=1 / open_gop=0 / weightp=2 / keyint=250 / keyint_min=24 / scenecut=40 / intra_refresh=0 / rc_lookahead=40 / rc=2pass / mbtree=1 / bitrate=2300 / ratetol=1.0 / qcomp=0.60 / qpmin=0 / qpmax=69 / qpstep=4 / cplxblur=20.0 / qblur=0.5 / ip_ratio=1.40 / aq=1:1.00
Default : Yes
Forced : No

Audio #1
ID : 2
Format : AC-3
Format/Info : Audio Coding 3
Mode extension : CM (complete main)
Format settings, Endianness : Big
Codec ID : A_AC3
Duration : 4 h 46 min
Bit rate mode : Constant
Bit rate : 192 kb/s
Channel(s) : 2 channels
Channel positions : Front: L R
Sampling rate : 48.0 kHz
Frame rate : 31.250 FPS (1536 spf)
Compression mode : Lossy
Stream size : 394 MiB (7%)
Title : Enter
Language : Ukrainian
Default : Yes
Forced : Yes

Audio #2
ID : 3
Format : AC-3
Format/Info : Audio Coding 3
Mode extension : CM (complete main)
Format settings, Endianness : Big
Codec ID : A_AC3
Duration : 4 h 46 min
Bit rate mode : Constant
Bit rate : 192 kb/s
Channel(s) : 2 channels
Channel positions : Front: L R
Sampling rate : 48.0 kHz
Frame rate : 31.250 FPS (1536 spf)
Compression mode : Lossy
Stream size : 394 MiB (7%)
Language : Polish
Default : No
Forced : No
Джерело:
Особиста оцінка: не дивився


Срібний реліз (на рейтинг впливає 50% завантаженого)
 Трекер:    Зареєстрований   

Завантажити / скачати фільм українською



відео для новачків



 Зареєстрований:   2020-04-28 19:08
 Розмір:   5.38 GB 
 Оцінка фільму:   9.3/10 (Голосів: 6)
   
Інші релізи
   Потоп / Potop (1974) Ukr/Pol _oles  2 / 0   4.36 GB   2012-02-11 22:52 
21jumpstreet 
VIP


З нами з: 03.07.12
Востаннє: 08.08.20
Повідомлень: 1126

2020-04-22 13:08  
Є озвучення від компанії кіт
Arsenfpu 
Відео Гуртом - фільмокрай
Відео Гуртом - фільмокрай


З нами з: 30.04.09
Востаннє: 08.08.20
Повідомлень: 7126

2020-04-22 13:10  
21jumpstreet
А яке ще є?

21jumpstreet 
VIP


З нами з: 03.07.12
Востаннє: 08.08.20
Повідомлень: 1126

2020-04-22 13:37  
Arsenfpu
Це єдине озвучення

Arsenfpu 
Відео Гуртом - фільмокрай
Відео Гуртом - фільмокрай


З нами з: 30.04.09
Востаннє: 08.08.20
Повідомлень: 7126

2020-04-22 13:40  
21jumpstreet
Реліз не планувався в оригіналі...

21jumpstreet 
VIP


З нами з: 03.07.12
Востаннє: 08.08.20
Повідомлень: 1126

2020-04-22 13:59  
Arsenfpu

Хоча за моєю думкою канал ентер фільм покаже це кіно з озвученням від компанії кіт. Якщо буде нове, то це добре буде.

21jumpstreet 
VIP


З нами з: 03.07.12
Востаннє: 08.08.20
Повідомлень: 1126

2020-04-25 22:02  
Так, ентер фільм показує нове озвучення
Частину ролей озвучили: Владислав Пупков, Андрій Альохін, Андрій Соболєв

tilda4334 
VIP


З нами з: 15.08.14
Востаннє: 08.08.20
Повідомлень: 990

2020-04-25 22:12  
21jumpstreet написано:
Частину ролей озвучили: Владислав Пупков, Андрій Альохін, Андрій Соболєв

ще Олександр Солодкий та Єлизавета Зіновенко

21jumpstreet 
VIP


З нами з: 03.07.12
Востаннє: 08.08.20
Повідомлень: 1126

2020-04-26 14:44  
Хоча озвучення не повне. Вирізано 40 хвилин
robotron005 
Відео Гуртом - фільмокрай
Відео Гуртом - фільмокрай


З нами з: 29.01.09
Востаннє: 08.08.20
Повідомлень: 3347

2020-04-26 15:23  
21jumpstreet написано:
Хоча озвучення не повне. Вирізано 40 хвилин


Як варіянт, зробити - ___Remux "Enter-film Cut" ).

bot 
робот


З нами з: 30.09.07
Востаннє: 26.05.05
Повідомлень: 25180

2020-04-28 19:08  
Тему перенесено з Анонси релізів до форуму Фільми


Arsenfpu

SKAT 
Свій


З нами з: 27.07.09
Востаннє: 26.06.20
Повідомлень: 109

2020-04-28 22:03  
Дуже крутий фільм.
Бачив його ще в дитинстві.

Ніяк не зберуся ще раз переглянути.

Безсмертна класика. Справжня масовка, сцени фехтування без дублерів, постановка боїв, костюми - все на найвищому рівні.

Тільки в голову прийшло, що з початку 00-вих не бачив і не чув гідного польського фільму.

Відгукніться ті, хто може щось гідне порадити.

21jumpstreet 
VIP


З нами з: 03.07.12
Востаннє: 08.08.20
Повідомлень: 1126

2020-04-28 22:05  
SKAT
Хрестоносці, Вогнем і мечем, Пан Володиєвський, в пустелі і джунглях

Ваш часовий пояс: GMT + 2 Години

Нова тема   Відповісти