Розбірки у маленькому Токіо / Showdown in Little Tokyo (1991) 720p 2xUkr/Eng| Sub Eng

Нові коментарі

Нова тема   Відповісти
Останній раз роздавалося Dastaevskiy (2020-09-23)
Автор Повідомлення
PatataFrita 
Свій


З нами з: 05.04.20
Востаннє: 08.09.20
Повідомлень: 83

2020-04-22 02:19  
Розбірки у маленькому Токіо / Showdown in Little Tokyo (1991) 720p 2xUkr/Eng| Sub Eng

Розбірки у маленькому Токіо / Showdown in Little Tokyo (1991) 720p 2xUkr/Eng| Sub Eng


Жанр: бойовик, комедія, кримінал
Країна: США



Кінокомпанія: Warner Bros. Pictures
Режисер: Марк Л. Лестер (Mark L. Lester)
Актори: Дольф Лундґрен (Dolph Lundgren), Брендон Лі (Brandon Lee), Кері-Гіроюкі Таґава (Cary-Hiroyuki Tagawa), Тіа Каррере (Tia Carrere), Тосіро Обата (Toshiro Obata) та інші.

Сюжет:
Поліцейський з Лос-Анджелеса, який виріс у Японії та вивчив там бойові мистецтва, зустрічає у районі "Маленький Токіо" вбивцю своїх батьків, який налагоджує в Америці торгівлю новим видом сильного наркотику. Разом зі своїм новим партнером він вступає у бій із якудзою.



Тривалість: 01:18:21
Якість: 720p
Відео:
кодек:
розмір кадру: 1280x720
бітрейт: 5427 кб/с

Аудіо # 1:
мова: українська
переклад: багатоголосий закадровий
кодек: 2.0
бітрейт: 192 кб/с

Аудіо # 2:
мова: українська
переклад: багатоголосий закадровий
кодек: 2.0
бітрейт: 192 кб/с

Аудіо # 3:
мова: англійська
переклад: оригінал
кодек: 2.0
бітрейт: 192 кб/с

Джерело озвучення:


Субтитри:
мова: англійська
тип: програмні (м'які)
формат: *.srt
Info
General
Unique ID : 120281417290591622232360539797339880562 (0x5A7D5BBB9A19E996A16E143D6E35BC72)
Complete name : D:\Showdown in Little Tokyo (1991) 720p [2xUkr,Eng] [Hurtom].
Format :
Format version : Version 4
File size : 3.29 GiB
Duration : 1 h 18 min
Overall bit rate : 6 006 kb/s
Encoded date : UTC 2020-04-21 08:51:05
Writing application : v45.0.0 ('Heaven in Pennies') 32-bit
Writing library : libebml v1.3.10 + v1.5.2

Video
ID : 1
Format : AVC
Format/Info : Advanced Video Codec
Format profile : [email protected]
Format settings : CABAC / 9 Ref Frames
Format settings, CABAC : Yes
Format settings, Reference : 9 frames
Codec ID : V_MPEG4/ISO/AVC
Duration : 1 h 18 min
Bit rate : 5 427 kb/s
Width : 1 280 pixels
Height : 720 pixels
Display aspect ratio : 16:9
Frame rate mode : Constant
Frame rate : 23.976 (24000/1001) FPS
Color space : YUV
Chroma subsampling : 4:2:0
Bit depth : 8 bits
Scan type : Progressive
Bits/(Pixel*Frame) : 0.246
Stream size : 2.97 GiB (90%)
Writing library : core 146 r2538 121396c
Encoding settings : cabac=1 / ref=9 / deblock=1:-3:-3 / analyse=0x3:0x113 / me=umh / subme=11 / psy=1 / psy_rd=1.00:0.10 / mixed_ref=1 / me_range=32 / chroma_me=1 / trellis=2 / 8x8dct=1 / cqm=0 / deadzone=21,11 / fast_pskip=0 / chroma_qp_offset=-3 / threads=12 / lookahead_threads=2 / sliced_threads=0 / nr=0 / decimate=1 / interlaced=0 / bluray_compat=0 / constrained_intra=0 / bframes=8 / b_pyramid=2 / b_adapt=2 / b_bias=0 / direct=1 / weightb=1 / open_gop=0 / weightp=2 / keyint=240 / keyint_min=23 / scenecut=40 / intra_refresh=0 / rc=crf / mbtree=0 / crf=19.0 / qcomp=0.60 / qpmin=0 / qpmax=69 / qpstep=4 / ip_ratio=1.40 / pb_ratio=1.30 / aq=1:1.00
Default : Yes
Forced : No

Audio #1
ID : 2
Format : AC-3
Format/Info : Audio Coding 3
Commercial name : Dolby Digital
Codec ID : A_AC3
Duration : 1 h 18 min
Bit rate mode : Constant
Bit rate : 192 kb/s
Channel(s) : 2 channels
Channel layout : L R
Sampling rate : 48.0 kHz
Frame rate : 31.250 FPS (1536 SPF)
Compression mode : Lossy
Stream size : 108 MiB (3%)
Title : ICTV & Novy Channel
Language : Ukrainian
Service kind : Complete Main
Default : Yes
Forced : Yes

Audio #2
ID : 3
Format : AC-3
Format/Info : Audio Coding 3
Commercial name : Dolby Digital
Codec ID : A_AC3
Duration : 1 h 18 min
Bit rate mode : Constant
Bit rate : 192 kb/s
Channel(s) : 2 channels
Channel layout : L R
Sampling rate : 48.0 kHz
Frame rate : 31.250 FPS (1536 SPF)
Compression mode : Lossy
Stream size : 108 MiB (3%)
Title : Inter
Language : Ukrainian
Service kind : Complete Main
Default : No
Forced : No

Audio #3
ID : 4
Format : AC-3
Format/Info : Audio Coding 3
Commercial name : Dolby Digital
Codec ID : A_AC3
Duration : 1 h 18 min
Bit rate mode : Constant
Bit rate : 192 kb/s
Channel(s) : 2 channels
Channel layout : L R
Sampling rate : 48.0 kHz
Frame rate : 31.250 FPS (1536 SPF)
Compression mode : Lossy
Stream size : 108 MiB (3%)
Title : 2.0 @ 192 kbps
Language : English
Service kind : Complete Main
Default : No
Forced : No

Text
ID : 5
Format : UTF-8
Codec ID : S_TEXT/UTF8
Codec ID/Info : UTF-8 Plain Text
Duration : 1 h 12 min
Bit rate : 37 b/s
Count of elements : 645
Stream size : 20.1 KiB (0%)
Language : English
Default : No
Forced : No

Menu
00:00:00.000 : en:Credits Over Tattoos
00:02:32.000 : en:Kenner takes in the fights
00:05:40.701 : en:Matsuno's your new partner
00:09:56.068 : en:Headquarters; suspect lost
00:12:53.368 : en:Yoshida doles out death
00:17:35.002 : en:The Bonsai Club
00:24:22.402 : en:"This is not the way"
00:27:48.602 : en:Pointed bargining
00:29:58.635 : en:Beauty possesed - and rescued by Kenner
00:33:34.336 : en:"Bring me the head of the blond cop"
00:38:58.970 : en:Bathhouse brawl
00:41:35.237 : en:Kenner's house
00:48:20.071 : en:From hot tub to bedroom
00:50:01.471 : en:Under siege
00:53:18.439 : en:Mastering the Master of Pain
00:56:40.407 : en:Heavy metal sushi
00:58:55.707 : en:Storming the brewery
01:02:22.074 : en:Sato gets distilled
01:06:54.374 : en:Inferno
01:09:43.407 : en:Showdown in Little Tokyo
01:11:06.440 : en:Community relations
01:15:00.974 : en:End Credits
Скріншоти




За українські доріжки подяка п.: robotron005, olgaya, Sando7, за постер - п.gig_Panas

Джерело: &
Особиста оцінка: 10 - без зайвих вагань рекомендую всім!


Срібний реліз (на рейтинг впливає 50% завантаженого)
 Трекер:    Зареєстрований   

Завантажити / скачати фільм українською



відео для новачків



 Зареєстрований:   2020-04-22 02:19
 Розмір:   3.29 GB 
 Оцінка фільму:   10/10 (Голосів: 5)
   
Ваш часовий пояс: GMT + 2 Години

Нова тема   Відповісти