Вар'єте / Variete (1925) AVC Ger | Sub Ukr [Німе Кіно]

Нові коментарі

Нова тема   Відповісти
Останній раз роздавалося roalad (2020-12-03)
Автор Повідомлення
Anonymous 







2020-04-21 20:22  
Вар'єте / Variete (1925) AVC Ger | Sub Ukr [Німе Кіно]

Вар'єте / Variete (1925) AVC Ger | Sub Ukr [Німе Кіно]

Жанр: драма, мелодрама, кримінальний
Країна: Німеччина



Кінокомпанія: Universum Film (UFA)
Режисер: Евальд Андре Дюпон
Актори: Еміль Яннінгс, Ліа де Путті, Уорвік Ворд, Малі Дельшафт, Георг Джон, Георг Базельт, Курт Геррон, Пауль Рекопф, Труде Гестерберг, Вернер Краус, Енріко Растеллі та інші.

Сюжет:
Ув'язнений Штефан Гуллер (Еміль Яннінгс), якого після десяти років за ґратами повинні випустити на свободу під чесне слово, розповідає начальнику в'язниці трагічну історію свого злочину.


Тривалість: 1:34:35
Якість:
Відео:
кодек:
розмір кадру: 768х576
бітрейт: 2 мб/с

Аудіо:
мова: відсутня, лише музичний супровід
переклад: оригінал
кодек: 5.1
бітрейт: 192 кб/с

Субтитри:
мова: українська
тип: програмні (м'які)
формат: *.
переклад: власний аматорський, з російської
Info
General
Unique ID : 122964768184845436462723386607527903031 (0x5C822725730D7F41E1749FABDCF1BF37)
Complete name : Variete (1925) AVC [UKR SUB].
Format :
Format version : Version 4
File size : 1.45 GiB
Duration : 1 h 35 min
Overall bit rate : 2 175 kb/s
Encoded date : UTC 2020-04-21 18:05:25
Writing application : v45.0.0 ('Heaven in Pennies') 64-bit
Writing library : libebml v1.3.10 + v1.5.2
Attachments : Poster.jpg

Video
ID : 1
Format : AVC
Format/Info : Advanced Video Codec
Format profile : [email protected]
Format settings : CABAC / 9 Ref Frames
Format settings, CABAC : Yes
Format settings, Reference : 9 frames
Codec ID : V_MPEG4/ISO/AVC
Duration : 1 h 34 min
Bit rate : 2 000 kb/s
Width : 768 pixels
Height : 576 pixels
Display aspect ratio : 4:3
Frame rate mode : Constant
Frame rate : 24.000 FPS
Color space : YUV
Chroma subsampling : 4:2:0
Bit depth : 8 bits
Scan type : Progressive
Bits/(Pixel*Frame) : 0.188
Stream size : 1.32 GiB (91%)
Writing library : core 157 r2935 545de2f
Encoding settings : cabac=1 / ref=9 / deblock=1:-1:-1 / analyse=0x3:0x113 / me=umh / subme=11 / psy=1 / psy_rd=1.00:0.15 / mixed_ref=1 / me_range=48 / chroma_me=1 / trellis=2 / 8x8dct=1 / cqm=0 / deadzone=21,11 / fast_pskip=0 / chroma_qp_offset=-5 / threads=18 / lookahead_threads=3 / sliced_threads=0 / nr=0 / decimate=1 / interlaced=0 / bluray_compat=0 / constrained_intra=0 / bframes=8 / b_pyramid=2 / b_adapt=2 / b_bias=0 / direct=1 / weightb=1 / open_gop=0 / weightp=2 / keyint=240 / keyint_min=23 / scenecut=40 / intra_refresh=0 / rc_lookahead=60 / rc=2pass / mbtree=1 / bitrate=2000 / ratetol=1.0 / qcomp=0.60 / qpmin=10 / qpmax=69 / qpstep=4 / cplxblur=20.0 / qblur=0.5 / vbv_maxrate=50000 / vbv_bufsize=62500 / nal_hrd=none / filler=0 / ip_ratio=1.40 / aq=1:1.00
Default : Yes
Forced : No

Audio
ID : 2
Format : AC-3
Format/Info : Audio Coding 3
Commercial name : Dolby Digital
Codec ID : A_AC3
Duration : 1 h 35 min
Bit rate mode : Constant
Bit rate : 192 kb/s
Channel(s) : 6 channels
Channel layout : L R C LFE Ls Rs
Sampling rate : 48.0 kHz
Frame rate : 31.250 FPS (1536 SPF)
Compression mode : Lossy
Stream size : 131 MiB (9%)
Service kind : Complete Main
Default : Yes
Forced : No

Text
ID : 3
Format :
Codec ID : S_TEXT/
Codec ID/Info : Advanced Sub Station Alpha
Duration : 1 h 32 min
Bit rate : 17 b/s
Count of elements : 137
Compression mode : Lossless
Stream size : 12.1 KiB (0%)
Default : Yes
Forced : No
Оригінальний постер 1925 року
Скріншоти







Інтересні факти
- Оскільки фільм був створений у Німеччині, він не був зроблений за новоствореним стандартом МППДА «Кодекс Хейса», який був введений напередодні з надією пом’якшити понад 100 місцевих та державних цензурних комісій по всьому США. Через це комісія швидко взялися за цензуру, вирізавши з плівки, в середньому, так багато кадрів, що вони заповнювали два барабани(касети) від фільму. В Нью-Йорку зробили найменше скорочення, видаливши трохи менше одного барабана(касети) плівки.
Обережно спойлер
- Оскільки Бос і Артінеллі перебувають у своїй гримерній кімнаті після того, як Бос дізнається про справу своєї дружини з Артінеллі, і розглядає можливість вбити його під час їх "заняття", на стіні позаду них видно малюнок клоуна Commedia dell'arte, що нагадує опера "Пальяччі", в якій головний герой - клоун, який вбиває дружину та коханого під час вистави.
Джерело:
Особиста оцінка: 8 - мені сподобалося


Срібний реліз (на рейтинг впливає 50% завантаженого)
 Трекер:    Зареєстрований   

Завантажити / скачати фільм українською



відео для новачків



 Зареєстрований:   2020-04-21 20:22
 Розмір:   1.45 GB 
 Оцінка фільму:   6.3/10 (Голосів: 3)
   
Інші релізи
11FrYkT 
Модератор відео


З нами з: 20.02.11
Востаннє: 03.12.20
Повідомлень: 7049

2020-04-22 11:32  
Anonymous написано:
кодек: 5.1

таке не потрібно робити

VitNi 
Поважний учасник


З нами з: 05.05.12
Востаннє: 04.12.20
Повідомлень: 198

2020-04-22 17:20  
фільм - шедевр.
музичне супроводження - шедевр.
я у захваті. ... ... ...
Один з найкращих що я бачив (а чи не найкращий).

Ваш часовий пояс: GMT + 2 Години

Нова тема   Відповісти