Марс атакує! / Mars Attacks! (1996) AVC 2xUkr/Eng

Нові коментарі

Нова тема   Відповісти
Автор Повідомлення
Arsenfpu 
Відео Гуртом - фільмокрай
Відео Гуртом - фільмокрай


З нами з: 30.04.09
Востаннє: 06.07.20
Повідомлень: 7042

2020-04-21 21:13  
Марс атакує! / Mars Attacks! (1996) AVC 2xUkr/Eng

Марс атакує! / Mars Attacks! (1996) AVC 2xUkr/Eng


Жанр: комедія, фантастика
Країна: США



Кінокомпанія: Tim Burton Productions, Warner Bros.
Режисер: Тім Бартон
Актори: Джек Ніколсон, Гленн Клоуз, Аннетт Бенінг, Пірс Броснан, Денні Де Віто, Мартін Шорт, Сара Джессіка Паркер, Майкл Джей Фокс, Род Стайгер, Том Джонс, Лукас Хаас, Наталі Портман, Джим Браун, Ліза Марі

Сюжет:
На нашу планету напали. Марсіани, безпристрасні і бездушні маленькі зелені створіння, висаджуються в пустелі зі своїх космічних кораблів, а потім наступають на всіх напрямках. Столичний Вашингтон, Лас-Вегас і інші міста піддаються потужним вибухам, навколо лише одна розруха… Президент США закликає командування своїх збройних сил застосувати всі міри та засоби, проте думки самих командуючих, двох генералів робіглися. «Розбити і повернути їх на Марс!», — вважає генерал Деккер. «Домовитись про мир», — заперечує генерал Кейсі. Подальші події повинні визначити, хто ж із них правий.


Тривалість: 01:45:46
Якість:
Відео:
кодек:
розмір кадру: 1 024 х 432
бітрейт: 2 399 кб/с

Аудіо # 1:
мова: українська
переклад: багатоголосий закадровий
кодек: 2.0
бітрейт: 192 кб/с

Аудіо # 2:
мова: українська
переклад: багатоголосий закадровий
кодек: 5.1
бітрейт: 448 кб/с

Аудіо # 3:
мова: англійська
переклад: оригінал
кодек: 2.0
бітрейт: 192 кб/с
Скріншоти














Про файл
General
Unique ID : 12823579183466513988985215452649845029 (0x9A5BB44868615E37A2C75E6C8FB7125)
Complete name : C:\Mars Attacks! (1996) [2xUkr,Eng] AVC [Hurtom].
Format :
Format version : Version 4 / Version 2
File size : 2.39 GiB
Duration : 1 h 45 min
Overall bit rate : 3 232 kb/s
Movie name : Марс атакує! / Mars Attacks! (1996)
Encoded date : UTC 2020-04-24 15:36:59
Writing application : v21.0.0 ('Tardigrades Will Inherit The Earth') 32-bit
Writing library : libebml v1.3.5 + v1.4.8
Cover : Yes
Attachments : cover.jpg

Video
ID : 1
Format : AVC
Format/Info : Advanced Video Codec
Format profile : [email protected]
Format settings, CABAC : Yes
Format settings, ReFrames : 4 frames
Codec ID : V_MPEG4/ISO/AVC
Duration : 1 h 45 min
Bit rate : 2 399 kb/s
Width : 1 024 pixels
Height : 432 pixels
Display aspect ratio : 2.40:1
Frame rate mode : Constant
Frame rate : 23.976 (24000/1001) FPS
Color space : YUV
Chroma subsampling : 4:2:0
Bit depth : 8 bits
Scan type : Progressive
Bits/(Pixel*Frame) : 0.226
Stream size : 1.77 GiB (74%)
Writing library : core 157 r2935 545de2f
Encoding settings : cabac=1 / ref=3 / deblock=1:-1:-1 / analyse=0x3:0x113 / me=hex / subme=7 / psy=1 / psy_rd=1.00:0.15 / mixed_ref=1 / me_range=16 / chroma_me=1 / trellis=1 / 8x8dct=1 / cqm=0 / deadzone=21,11 / fast_pskip=1 / chroma_qp_offset=-3 / threads=12 / lookahead_threads=2 / sliced_threads=0 / nr=0 / decimate=1 / interlaced=0 / bluray_compat=0 / constrained_intra=0 / bframes=3 / b_pyramid=2 / b_adapt=1 / b_bias=0 / direct=1 / weightb=1 / open_gop=0 / weightp=2 / keyint=240 / keyint_min=23 / scenecut=40 / intra_refresh=0 / rc_lookahead=40 / rc=2pass / mbtree=1 / bitrate=2399 / ratetol=1.0 / qcomp=0.60 / qpmin=0 / qpmax=69 / qpstep=4 / cplxblur=20.0 / qblur=0.5 / ip_ratio=1.40 / aq=1:1.00
Default : Yes
Forced : No

Audio #1
ID : 2
Format : AC-3
Format/Info : Audio Coding 3
Mode extension : CM (complete main)
Format settings, Endianness : Big
Codec ID : A_AC3
Duration : 1 h 45 min
Bit rate mode : Constant
Bit rate : 192 kb/s
Channel(s) : 2 channels
Channel positions : Front: L R
Sampling rate : 48.0 kHz
Frame rate : 31.250 FPS (1536 spf)
Compression mode : Lossy
Stream size : 145 MiB (6%)
Title : НЛО
Language : Ukrainian
Default : Yes
Forced : Yes

Audio #2
ID : 3
Format : AC-3
Format/Info : Audio Coding 3
Mode extension : CM (complete main)
Format settings, Endianness : Big
Codec ID : A_AC3
Duration : 1 h 45 min
Bit rate mode : Constant
Bit rate : 448 kb/s
Channel(s) : 6 channels
Channel positions : Front: L C R, Side: L R, LFE
Sampling rate : 48.0 kHz
Frame rate : 31.250 FPS (1536 spf)
Compression mode : Lossy
Stream size : 339 MiB (14%)
Title : Новий
Language : Ukrainian
Default : No
Forced : No

Audio #3
ID : 4
Format : AC-3
Format/Info : Audio Coding 3
Mode extension : CM (complete main)
Format settings, Endianness : Big
Codec ID : A_AC3
Duration : 1 h 45 min
Bit rate mode : Constant
Bit rate : 192 kb/s
Channel(s) : 2 channels
Channel positions : Front: L R
Sampling rate : 48.0 kHz
Frame rate : 31.250 FPS (1536 spf)
Compression mode : Lossy
Stream size : 145 MiB (6%)
Language : English
Default : No
Forced : No
Джерело:
За запис з НЛО дякую пану Sando7
За доріжу від Нового дякую пану patriot2305
За постер дякую п. somnambula
Особиста оцінка: прикольний фільм


Срібний реліз (на рейтинг впливає 50% завантаженого)
 Трекер:    Зареєстрований   

Завантажити / скачати фільм українською



відео для новачків



 Зареєстрований:   2020-04-24 19:37
 Розмір:   2.39 GB 
 Оцінка фільму:   9.6/10 (Голосів: 14)
   
Інші релізи
   Марс атакує! / Mars Attacks! (1996) 1080p H.265 Ukr/Eng | Sub Eng -Star-Lord-  0 / 0   6.27 GB   2019-11-09 12:31 
   Марс атакує! / Mars Attacks! (1996) 1080p Ukr/Eng | Sub Eng drop_plz  1 / 0   10.35 GB   2018-08-17 16:41 
   Марс атакує! / Mars Attacks! (1996) [MP4, 640x] apvAltisimo  0 / 0   681 MB   2016-06-06 15:06 
   Марс атакує! / Mars Attacks! (1996) patriot2305  6 / 0   1.45 GB   2014-07-20 18:50 
   Марс атакує! / Mars Attacks! (1996) 720p Ukr/Eng | Sub Eng 11FrYkT  3 / 0   5.09 GB   2012-09-22 11:05 
bot 
робот


З нами з: 30.09.07
Востаннє: 26.05.05
Повідомлень: 24984

2020-04-24 19:37  
Тему перенесено з Анонси релізів до форуму Фільми


Arsenfpu

robotron005 
Відео Гуртом - фільмокрай
Відео Гуртом - фільмокрай


З нами з: 29.01.09
Востаннє: 06.07.20
Повідомлень: 3335

2020-04-25 20:32  
У розшуку запис з 1+1
Також транслювали на Інтері, в багатоголосці від ТТП.

Ваш часовий пояс: GMT + 2 Години

Нова тема   Відповісти