Вар'єте / Variete (1925) Remux 1080p Ger | Sub Ukr [Німе Кіно]

Нові коментарі

Нова тема   Відповісти
Автор Повідомлення
Anonymous 







2020-04-21 20:02  
Вар'єте / Variete (1925) Remux 1080p Ger | Sub Ukr [Німе Кіно]

Вар'єте / Variete (1925) Remux 1080p Ger | Sub Ukr [Німе Кіно]

Жанр: драма, мелодрама, кримінальний
Країна: Німеччина



Кінокомпанія: Universum Film (UFA)
Режисер: Евальд Андре Дюпон
Актори: Еміль Яннінгс, Ліа де Путті, Уорвік Ворд, Малі Дельшафт, Георг Джон, Георг Базельт, Курт Геррон, Пауль Рекопф, Труде Гестерберг, Вернер Краус, Енріко Растеллі та інші.

Сюжет:
Ув'язнений Штефан Гуллер (Еміль Яннінгс), якого після десяти років за ґратами повинні випустити на свободу під чесне слово, розповідає начальнику в'язниці трагічну історію свого злочину.


Тривалість: 1:34:35
Якість: Remux
Відео:
кодек:
розмір кадру: 1920х1080
бітрейт: 27,5 мб/с

Аудіо:
мова: відсутня, лише музичний супровід
переклад: оригінал
кодек: -HD MA 5.1
бітрейт: 4272 кб/с

Субтитри:
мова: українська
тип: програмні (м'які)
формат: *.
переклад: власний аматорський, з російської
Info
General
Unique ID : 231321438274817329352966012360800370332 (0xAE06E3731CAAC7A38E7782C3A4447E9C)
Complete name : Variete (1925) Remux 1080p [UKR SUB].
Format :
Format version : Version 4
File size : 21.0 GiB
Duration : 1 h 35 min
Overall bit rate mode : Variable
Overall bit rate : 31.5 Mb/s
Encoded date : UTC 2020-04-21 17:18:09
Writing application : v45.0.0 ('Heaven in Pennies') 64-bit
Writing library : libebml v1.3.10 + v1.5.2
Attachments : Poster.jpg

Video
ID : 1
Format : AVC
Format/Info : Advanced Video Codec
Format profile : [email protected]
Format settings : CABAC / 4 Ref Frames
Format settings, CABAC : Yes
Format settings, Reference : 4 frames
Format settings, GOP : M=3, N=24
Codec ID : V_MPEG4/ISO/AVC
Duration : 1 h 34 min
Bit rate mode : Variable
Bit rate : 27.5 Mb/s
Maximum bit rate : 38.0 Mb/s
Width : 1 920 pixels
Height : 1 080 pixels
Display aspect ratio : 16:9
Frame rate mode : Constant
Frame rate : 24.000 FPS
Standard : NTSC
Color space : YUV
Chroma subsampling : 4:2:0
Bit depth : 8 bits
Scan type : Progressive
Bits/(Pixel*Frame) : 0.552
Stream size : 18.1 GiB (86%)
Default : Yes
Forced : No
Color range : Limited
Color primaries : BT.709
Transfer characteristics : BT.709
Matrix coefficients : BT.709

Audio
ID : 2
Format : XLL
Format/Info : Digital Theater Systems
Commercial name : -HD Master Audio
Codec ID : A_DTS
Duration : 1 h 35 min
Bit rate mode : Variable
Bit rate : 4 272 kb/s
Channel(s) : 6 channels
Channel layout : C L R Ls Rs LFE
Sampling rate : 48.0 kHz
Frame rate : 93.750 FPS (512 SPF)
Bit depth : 24 bits
Compression mode : Lossless
Stream size : 2.85 GiB (14%)
Title : Music
Default : Yes
Forced : No

Text
ID : 3
Format :
Codec ID : S_TEXT/
Codec ID/Info : Advanced Sub Station Alpha
Duration : 1 h 32 min
Bit rate : 17 b/s
Count of elements : 137
Compression mode : Lossless
Stream size : 12.1 KiB (0%)
Language : Ukrainian
Default : Yes
Forced : No
Оригінальний постер 1925 року
Скріншоти







Інтересні факти
- Оскільки фільм був створений у Німеччині, він не був зроблений за новоствореним стандартом МППДА «Кодекс Хейса», який був введений напередодні з надією пом’якшити понад 100 місцевих та державних цензурних комісій по всьому США. Через це комісія швидко взялися за цензуру, вирізавши з плівки, в середньому, так багато кадрів, що вони заповнювали два барабани(касети) від фільму. В Нью-Йорку зробили найменше скорочення, видаливши трохи менше одного барабана(касети) плівки.
Обережно спойлер
- Оскільки Бос і Артінеллі перебувають у своїй гримерній кімнаті після того, як Бос дізнається про справу своєї дружини з Артінеллі, і розглядає можливість вбити його під час їх "заняття", на стіні позаду них видно малюнок клоуна Commedia dell'arte, що нагадує опера "Пальяччі", в якій головний герой - клоун, який вбиває дружину та коханого під час вистави.
Джерело: &
Особиста оцінка: 8 - мені сподобалося


Золотий реліз (завантажене не впливає на рейтинг)
 Трекер:    Зареєстрований   

Завантажити / скачати фільм українською



відео для новачків



 Зареєстрований:   2020-04-21 20:02
 Розмір:   21 GB 
 Оцінка фільму:   4.5/10 (Голосів: 2)
   
Інші релізи
   Вар'єте / Variete (1925) AVC Ger | Sub Ukr [Німе Кіно] roalad  1 / 0   1.45 GB   2020-04-21 20:22 
   Вар'єте / Variete (1925) 1080p Ger | Sub Ukr [Німе Кіно] roalad  1 / 0   6.29 GB   2020-04-21 20:12 
Ваш часовий пояс: GMT + 2 Години

Нова тема   Відповісти